ML
     
  Уважаемый Гость!
Вы можете поддержать проект и зарегистрироваться у наших партнеров - онлайн-стратегия MyLands. При регистрации в игре Вы получите код, который сможете активировать после регистрации на pirat.ca и получить 1000 дублонов.

Ваш код:
34514219cfad5497a1822ecc1269bea77988f9aa
 
     

Государственный секретарь / Madam Secretary / Сезон: 2 / Серии: 1-23 из 23 (Эрик Столц / Eric Stoltz, ...) [2015 г., Политическая драма, WEB-DLRip] DVO (Kiitos)

Ответить на тему
 
Автор
Сообщение

Пост 25-Авг-2016 20:22

[Q] 

somik

Легенда

-Государственный секретарь / Madam Secretary-- Производство: США, Barbara Hall Productions, CBS Television Studios, Revelations Entertainment
Жанр: Политическая драма
Год выпуска: 2015 г.
Продолжительность: 00:44:00
Мировая премьера: 4 октября 2015
Перевод: Любительский (двухголосый, закадровый) [Kiitos]
Режиссер: Эрик Столц / Eric Stoltz, ...-В ролях: Теа Леони, Тимоти Дэйли, Патина Миллер, Джеффри Аренд, Эрих Берген, Кэтрин Герцер, Эван Роу, Желько Иванек, Биби Нойвирт и др.-Описание: В центре сюжета находится Элизабет Маккорд, недавно назначенная на пост госсекретаря США. Героиня сериала ежедневно сталкивается со сложными миссиями и ведет глобальные переговоры. В сериале перекликаются реальные события сегодняшнего дня, политические интриги, борьба с терроризмом, война.-
Качество видео: WEB-DLRip
Контейнер: AVI
Видео кодек: XviD
Аудио кодек: MP3
Видео: 720x400 (1.80:1), 23.976 fps, XviD build 73 ~1385 kbps avg, 0.20 bit/pixel
Аудио: 48 kHz, MPEG Layer 3, 2 ch, ~192.00 kbps avg
Cубтитры: отсутствуют
Сказка о добром государственном секретаре и друге ее, президенте США
Чтобы вам понравился этот сериал нужно совпадение двух факторов. Во-первых, это типичный представитель жанра: красивые актеры, милые характеры персонажей, сюжет простой, но динамичный и с небольшой долей интриги и победой добра над злом. Во-вторых, это история про выдуманную страну, с выдуманными чиновниками и их функциями, которая существует в выдуманном мире. Если вы умеете абстрагироваться и любите простенькие, но добротные сериалы, смотрите.
Да, наверняка, этот сериал задумывался коварным предвыборным штабом Клинтон для зомбирования американских избирателей. Но нам то какое дело?) Сериалы — не тот канал коммуникации, через который стоит ожидать получения достоверных сведений о мире и тем более политике. Но тема интересная, почему бы не пофантазировать о том, что было бы, если бы президент США считал бы своим долгом менять мир к лучшему, а госсекретарь посвящала бы все время улаживанию конфликтов. 43 минуты сказки о мире с добрыми, честными людьми на верхушке политической системы. Почему бы и нет?
Только не забывайте, что никто не может сделать из вас зомби, если вы не зомби) Пропаганда сегодня — неотъемлемая часть нашей жизни. Бесполезно с ней бороться. Если вы не можете абстрагироваться, просто не смотрите. По названию уже понятно, чего ждать, и очень глупо ругать сериал за то, что он полностью оправдывает ожидания.
Общее
Полное имя : J:\ПОСЛЕДНИЕ ЗКГРУЗКИ\MadamSecretary.s02\MadamSecretary.s02.e01.avi
Формат : AVI
Формат/Информация : Audio Video Interleave
Размер файла : 501 Мбайт
Продолжительность : 44 м.
Общий поток : 1587 Кбит/сек
Название фильма : MadamSecretary.s02.e01
Программа кодирования : VirtualDubMod 1.5.10.2 (build 2540/release)
Видео
Идентификатор : 0
Формат : MPEG-4 Visual
Профиль формата : Advanced [email protected]
Параметр BVOP формата : 2
Параметр QPel формата : Нет
Параметр GMC формата : Без точки перехода
Параметр матрицы формата : Default (MPEG)
Идентификатор кодека : XVID
Идентификатор кодека/Подсказка : XviD
Продолжительность : 44 м.
Битрейт : 1386 Кбит/сек
Ширина : 720 пикселей
Высота : 400 пикселей
Соотношение сторон : 16:9
Частота кадров : 23,976 (23976/1000) кадра/сек
Цветовое пространство : YUV
Субдискретизация насыщенности : 4:2:0
Битовая глубина : 8 бит
Тип развёртки : Прогрессивная
Метод сжатия : С потерями
Бит/(Пиксели*Кадры) : 0.201
Размер потока : 437 Мбайт (87%)
Библиотека кодирования : XviD 73
Аудио
Идентификатор : 1
Формат : MPEG Audio
Версия формата : Version 1
Профиль формата : Layer 3
Режим : Joint stereo
Идентификатор кодека : 55
Идентификатор кодека/Подсказка : MP3
Продолжительность : 44 м.
Вид битрейта : Постоянный
Битрейт : 192 Кбит/сек
Каналы : 2 канала
Частота : 48,0 КГц
Метод сжатия : С потерями
Размер потока : 60,6 Мбайт (12%)
Выравнивание : Соединение по промежуткам
Продолжительность промежутка : 42 мс. (1,00 видеокадр)
Время предзагрузки промежутка : 504 мс.
Download / Скачать

Хотите скачать бесплатно? Зарегистрируйтесь на сайте (ссылка на регистрацию). Pirat.ca - самый быстрый торрент трекер в рунете!

Как скачивать  ·   Что такое торрент  ·   Рейтинг и ограничения

Показать сообщения:    
Ответить на тему

Текущее время: Сегодня 07:51

Часовой пояс: GMT + 4



Вы не можете начинать темы
Вы не можете отвечать на сообщения
Вы не можете редактировать свои сообщения
Вы не можете удалять свои сообщения
Вы не можете голосовать в опросах
Вы не можете прикреплять файлы к сообщениям
Вы не можете скачивать файлы

▼ Вниз