ML
     
  Уважаемый Гость!
Вы можете поддержать проект и зарегистрироваться у наших партнеров - онлайн-стратегия MyLands. При регистрации в игре Вы получите код, который сможете активировать после регистрации на pirat.ca и получить 1000 дублонов.

Ваш код:
c89b4b6523eaac3173e9a9c062ac1a19db575961
 
     

Воры Экстра класса / Smith / Сезон: 1 / Серии: 1-7 из 7 (Кристофер Чулак / Christopher Chulack) [2006 г., триллер, драма, криминал, HDTVRip] MVO [НТВ+ (Novafilm)] + [Original (Eng)]

Ответить на тему
 
Автор
Сообщение

Пост 26-Авг-2016 15:02

[Q] 

somik

Легенда

-Воры Экстра класса / Smith-- Производство: США, John Wells Productions, Warner Bros. Television
Жанр: триллер, драма, криминал
Год выпуска: 2006 г.
Продолжительность: 00:50:00
Мировая премьера: 19 сентября 2006
Перевод: Профессиональный (многоголосый, закадровый) [НТВ+ (Novafilm)]
Оригинальный аудиопоток: английский
Режиссер: Кристофер Чулак / Christopher Chulack-В ролях: Рэй Лиотта, Вирджиния Мэдсен, Саймон Бэйкер, Джонни Ли Миллер, Фрэнки Джи, Эми Смарт, Кристофер Бауэр, Шохре Агдашлу-Описание: Шайка воров-профессионалов колесит по всей стране, совершая идеальные ограбления, однако главарь бандитов, который ведет двойную жизнь, хочет уйти на покой, пожить в свое удовольствие, для этого он хочет сорвать большой куш, и кажется именно такое дельце и наклевывается, очень рискованное и очень прибыльное…-
Качество видео: HDTVRip
Контейнер: AVI
Видео кодек: XviD
Аудио кодек: MP3
Видео: 624x352 (1.77:1), 23.976 fps, XviD 1.1 beta 1 (build 38) ~1535 kbps avg, 0.29 bit/pixel
Аудио: 48 kHz, MPEG Layer 3, 2 ch, ~128.00 kbps avg
Аудио #2: 48 kHz, MPEG Layer 3, 2 ch, ~183.95 kbps avg
Cубтитры: отсутствуют
Изначально планировалось 13 серий, но сериал закрыли после выпуска 7-ой серии. Проект закрыт.
Интересный, захватывающий, увлекательный сериал.
Сняли 7 серий и проект закрыли.
Если Вы готовы к тому, чтобы не увидеть продолжения сюжета на самом интересном месте, то Вам однозначно стоит посмотреть то что снято на данный момент.
Надеюсь, когда-нибудь снимут продолжение, ведь сериал получился действительно стоящий.
10 из 10
Общее
Полное имя : J:\ПОСЛЕДНИЕ ЗКГРУЗКИ\Smith.(7.iz.7).S01.2006.HDTVRip.[pirat.ca]\smith.s01e01.hdtv.rus_ntv.eng.novafilm.tv.avi
Формат : AVI
Формат/Информация : Audio Video Interleave
Размер файла : 755 Мбайт
Продолжительность : 56 м.
Режим общего битрейта : Переменный
Общий поток : 1867 Кбит/сек
Название фильма : smith.s01e01.hdtv.rus_ntv.eng.novafilm.tv
Программа кодирования : VirtualDubMod 1.5.10.2 (build 2542/release)
Видео
Идентификатор : 0
Формат : MPEG-4 Visual
Профиль формата : Advanced [email protected]
Параметр BVOP формата : 2
Параметр QPel формата : Нет
Параметр GMC формата : Без точки перехода
Параметр матрицы формата : Default (H.263)
Режим смешивания : Сжатый битовый поток
Идентификатор кодека : XVID
Идентификатор кодека/Подсказка : XviD
Продолжительность : 56 м.
Битрейт : 1537 Кбит/сек
Ширина : 624 пикселя
Высота : 352 пикселя
Соотношение сторон : 16:9
Частота кадров : 23,976 (23976/1000) кадра/сек
Цветовое пространство : YUV
Субдискретизация насыщенности : 4:2:0
Битовая глубина : 8 бит
Тип развёртки : Прогрессивная
Метод сжатия : С потерями
Бит/(Пиксели*Кадры) : 0.292
Размер потока : 622 Мбайт (82%)
Библиотека кодирования : XviD 1.1.0 Beta1 (UTC 2005-01-16)
Аудио #1
Идентификатор : 1
Формат : MPEG Audio
Версия формата : Version 1
Профиль формата : Layer 3
Режим : Joint stereo
Расширение режима : MS Stereo
Идентификатор кодека : 55
Идентификатор кодека/Подсказка : MP3
Продолжительность : 56 м.
Вид битрейта : Постоянный
Битрейт : 128 Кбит/сек
Каналы : 2 канала
Частота : 48,0 КГц
Метод сжатия : С потерями
Размер потока : 51,8 Мбайт (7%)
Выравнивание : Соединение по промежуткам
Продолжительность промежутка : 42 мс. (1,00 видеокадр)
Время предзагрузки промежутка : 504 мс.
Аудио #2
Идентификатор : 2
Формат : MPEG Audio
Версия формата : Version 1
Профиль формата : Layer 3
Режим : Joint stereo
Расширение режима : MS Stereo
Идентификатор кодека : 55
Идентификатор кодека/Подсказка : MP3
Продолжительность : 56 м.
Вид битрейта : Переменный
Битрейт : 177 Кбит/сек
Каналы : 2 канала
Частота : 48,0 КГц
Метод сжатия : С потерями
Размер потока : 74,4 Мбайт (10%)
Выравнивание : Соединение по промежуткам
Продолжительность промежутка : 24 мс. (0,58 видеокадр)
Время предзагрузки промежутка : 513 мс.
Библиотека кодирования : LAME3.90.
Настройки программы : -m j -V 4 -q 2 -lowpass 19.6 --abr 177
Download / Скачать

Хотите скачать бесплатно? Зарегистрируйтесь на сайте (ссылка на регистрацию). Pirat.ca - самый быстрый торрент трекер в рунете!

Как скачивать  ·   Что такое торрент  ·   Рейтинг и ограничения

Показать сообщения:    
Ответить на тему

Текущее время: Сегодня 22:27

Часовой пояс: GMT + 4



Вы не можете начинать темы
Вы не можете отвечать на сообщения
Вы не можете редактировать свои сообщения
Вы не можете удалять свои сообщения
Вы не можете голосовать в опросах
Вы не можете прикреплять файлы к сообщениям
Вы не можете скачивать файлы

▼ Вниз