ML
     
  Уважаемый Гость!
Вы можете поддержать проект и зарегистрироваться у наших партнеров - онлайн-стратегия MyLands. При регистрации в игре Вы получите код, который сможете активировать после регистрации на pirat.ca и получить 1000 дублонов.

Ваш код:
8b752b428cf60a012c159dcae592cd1392170115
 
     

Тот, кто убивает / Den som dræber / Сезон: 1 / Серии: 1-10 из 10 (Каспер Барфоэд / Kasper Barfoed, ...) [2011 г., боевик, триллер, криминал, HDRip] MVO (ViruseProject)

Ответить на тему
 
Автор
Сообщение

Пост 26-Авг-2016 15:45

[Q] 

somik

Легенда

-Тот, кто убивает / Den som dræber-- Производство: Дания, Miso Film & TV2 Danmark
Жанр: боевик, триллер, криминал
Год выпуска: 2011 г.
Продолжительность: 00:42:00
Мировая премьера: 13 марта 2011
Перевод: Профессиональный (многоголосый, закадровый) [ViruseProject]
Режиссер: Каспер Барфоэд / Kasper Barfoed, ...-В ролях: Лаура Бах, Якоб Седергрен, Ларс Миккельсен, Лерке Винтер Андерсен, Фредерик Мельдаль Нёргор, Ибен Дорнер Эстергорд, Беньямин Брюэль, Карстен Бьорнлунн, Давид Денсик, Ульрих Томсен-Описание: В центре сериала опытный следователь Катрин Рис Йенсен, которая вот уже много лет руководит расследованиями уголовных преступлений в столице Дании. В детстве пережив насилие со стороны отчима, она ищет насильников, маньяков и убийц, жертвуя собой и своей личной жизнью. В ее расследованиях ей помогает Стиг Мёльбек, метящий на место Катрин Рис, а также психолог Томас Шеффер, также имеющий в своем прошлом темные страницы. Не раз он примет рискованное решение, которое может привести к тяжелым последствиям.-
Качество видео: HDRip
Контейнер: AVI
Видео кодек: XviD
Аудио кодек: MP3
Видео: 720x400 (1.80:1), 23.976 fps, XviD build 50 ~1419 kbps avg, 0.20 bit/pixel
Аудио: 48 kHz, MPEG Layer 3, 2 ch, ~192.00 kbps avg
Cубтитры: отсутствуют
Настоящий детектив
Прочитал предыдущие рецензии и был немного расстроен тем, что их тон варьируется от нейтрального до негативного. А меж тем сериал хорош, и стоит того, чтобы его посмотреть.
Во-первых, это тот редкий в последнее время тип сериала, где главные герои 99% экранного времени занимаются именно тем, чем им и положено заниматься — поиском преступников.
Сейчас модно разбавлять детективную линию всевозможными побочными историями, повествующими о семейных проблемах, личных проблемах и прочих проблемах, не имеющих отношения, собственно, к расследованию. По замыслу авторов, это должно помочь глубже раскрыть характер персонажа, но по факту только раздражает: если бы я хотел посмотреть мелодраму, то я бы выбрал мелодраму, а не детектив.
В данном случае баланс сильно смещен в сторону основного сюжета, и это идет сериалу на пользу.
Во-вторых, маньяки. Последний раз серийными убийцами всерьез занимались герои «Ганнибала». Но там перед сценаристами стоял задача поразить зрителя «глубоким» проникновением в психологию маньяка, в результате чего эстетика победила здравый смысл, и персонажи утратили правдоподобие, превратившись в объекты из кунсткамеры.
Здесь же все намного проще, но от того не менее интересно. Маньяки разнообразны, но их отклонения не кажутся высосанными из пальца, как в случае с «Ганнибалом».
В-третьих, сюжет. Есть интересные находки, мощные твисты и клиффхангеры. Каждая серия смотрится на одном дыхании (с учетом того, что продолжительность эпизода — 1,5 часа), скучать некогда.
Резюме: добротный детективный сериал, без излишеств. Очень жаль, что продолжительность всего один сезон, но даже эти шесть серий доставили огромное удовольствие.
PS. Сравнивать данный сериал с «Мостом» и «Убийством» не стоит. Эти два сериала совсем из другой весовой категории, да и формат тоже отличается. Одно дело уложить историю в полтора часа, другое дело — растянуть на 10 или 20 серий. Как по мне, так создатели со своей задачей справились.
7 из 10
Общее
Полное имя : J:\ПОСЛЕДНИЕ ЗКГРУЗКИ\Tot, kto ubivaet.S01.[pirat.ca]\Those.Who.Kill.S01E01.ViruseProject.PROPER.avi
Формат : AVI
Формат/Информация : Audio Video Interleave
Размер файла : 573 Мбайт
Продолжительность : 49 м.
Общий поток : 1621 Кбит/сек
Название фильма : Those.Who.Kill.S01E01.ViruseProject.PROPER
Программа кодирования : VirtualDubMod 1.5.10.2 (build 2540/release)
Видео
Идентификатор : 0
Формат : MPEG-4 Visual
Профиль формата : Advanced [email protected]
Параметр BVOP формата : 1
Параметр QPel формата : Нет
Параметр GMC формата : Без точки перехода
Параметр матрицы формата : Default (MPEG)
Идентификатор кодека : XVID
Идентификатор кодека/Подсказка : XviD
Продолжительность : 49 м.
Битрейт : 1419 Кбит/сек
Ширина : 720 пикселей
Высота : 400 пикселей
Соотношение сторон : 16:9
Частота кадров : 23,976 (23976/1000) кадра/сек
Цветовое пространство : YUV
Субдискретизация насыщенности : 4:2:0
Битовая глубина : 8 бит
Тип развёртки : Прогрессивная
Метод сжатия : С потерями
Бит/(Пиксели*Кадры) : 0.206
Размер потока : 502 Мбайт (88%)
Библиотека кодирования : XviD 1.2.1 (UTC 2008-12-04)
Аудио
Идентификатор : 1
Формат : MPEG Audio
Версия формата : Version 1
Профиль формата : Layer 3
Режим : Joint stereo
Расширение режима : MS Stereo
Идентификатор кодека : 55
Идентификатор кодека/Подсказка : MP3
Продолжительность : 49 м.
Вид битрейта : Постоянный
Битрейт : 192 Кбит/сек
Каналы : 2 канала
Частота : 48,0 КГц
Метод сжатия : С потерями
Размер потока : 67,9 Мбайт (12%)
Выравнивание : Разделение по промежуткам
Продолжительность промежутка : 42 мс. (1,00 видеокадр)
Время предзагрузки промежутка : 500 мс.
Download / Скачать

Хотите скачать бесплатно? Зарегистрируйтесь на сайте (ссылка на регистрацию). Pirat.ca - самый быстрый торрент трекер в рунете!

Как скачивать  ·   Что такое торрент  ·   Рейтинг и ограничения

Показать сообщения:    
Ответить на тему

Текущее время: Сегодня 06:20

Часовой пояс: GMT + 4



Вы не можете начинать темы
Вы не можете отвечать на сообщения
Вы не можете редактировать свои сообщения
Вы не можете удалять свои сообщения
Вы не можете голосовать в опросах
Вы не можете прикреплять файлы к сообщениям
Вы не можете скачивать файлы

▼ Вниз