ML
     
  Уважаемый Гость!
Вы можете поддержать проект и зарегистрироваться у наших партнеров - онлайн-стратегия MyLands. При регистрации в игре Вы получите код, который сможете активировать после регистрации на pirat.ca и получить 1000 дублонов.

Ваш код:
8b752b428cf60a012c159dcae592cd1392170115
 
     

Злой город / Wicked City / Сезон: 1 / Серии: 1-8 из 8 (Джон Кассар Jon Cassar, ...) [2015 г., драма, криминал, WEB-DLRip] Dub (Кириллица) + Original (Eng)

Ответить на тему
 
Автор
Сообщение

Пост 26-Авг-2016 18:18

[Q] 

somik

Легенда

-Злой город / Wicked City-- Производство: США, Mandeville Films, ABC Studios
Жанр: драма, криминал
Год выпуска: 2015 г.
Продолжительность: 00:43:00
Мировая премьера: 27 октября 2015
Российская премьера: 1 сентября 2016
Перевод: Профессиональный (полное дублирование) [Кириллица]
Оригинальный аудиопоток: английский
Режиссер: Джон Кассар Jon Cassar, ...-В ролях: Эрика Кристенсен, Таисса Фармига, Гэбриел Луна, Эд Вествик, Энн Уинтерс, Каролина Выдра, Ивэн Росс, Джереми Систо, Талия Томс, Джейми Рэй Ньюман и др.-Описание: На дворе 1982 год, в насыщенном соблазнами Лос-Анджелесе правят наркотики и рок-н-ролл. Бесконечное веселье вокруг становится благодатной почвой для выхода из тени жестоко и хитроумного маньяка Кента Грейнджера, вселившего ужас во всех жителей и обитателей Сансет Стрип. Убийца находит жертв в злачных местах, откуда заманивает в собственный автомобиль и отъезжает на уединённый пустырь. Там он расправляется с девушками и использует их бездыханные тела для удовлетворения своих звериных потребностей, а после оставляет там, где жертв быстро обнаружат.
Убийца с Сансет Стрип выработал уникальный почерк: незадолго до расправы над жертвой он звонит на радио и просит поставить для неё песню, тем самым называя имя очередной добычи. Количество смертей увеличивается, Злой город стремительно утопает в крови невинных и несколько детективов объединяют усилия с журналистами, завсегдатаями местных клубов и уличными наркоторговцами, чтобы вместе найти и обезвредить источник ужаса. Тем временем, Кент находит новую жертву — медсестру и мать-одиночку двоих детей Бетти Бомонт, всё шло по плану, однако в ответственный момент его сердце дрогнуло — маньяк испытал неожиданное чувство симпатии к женщине и отпустил её. Между ними стали развиваться отношения, которые в конце концов сделают мисс Бомонт соучастницей зверств Грейнджера.-
Качество видео: WEB-DLRip
Контейнер: AVI
Видео кодек: MPEG4 AVC
Аудио кодек: AC3
Видео: 720x400 (1.80:1), 25 fps, XviD MPEG-4 ~1431 kbps avg, 0.20 bit/pixel
Аудио: 48 kHz, AC3 Dolby Digital, 2/0 (L,R) ch, ~192 kbps
Аудио #2: 48 kHz, AC3 Dolby Digital, 2/0 (L,R) ch, ~192 kbps
Cубтитры: отсутствуют
Игра одного убийцы
Как детектив сериал непримечательный. Информация о преступнике у полиции есть, средства для проведения тщательного расследования есть, а вот мозгов увы…
Джереми Систо, который должен был стать главным героем сериала вообще не вызвал никаких эмоций. Сценаристы сделали его героя никаким, хотя есть актеры, которые своей игрой вытаскивают роль, но это не о нем. Среднестатистический полицейский, который судя по поведению за весь период своей работы так и не смог набраться опыта и научиться мыслить методом дедукции.
Подруга маньяка при минимализме раскрытия сценаристами героини, как же она дошла до такого, сыграла вполне убедительно все, кроме момента трансформации ее личности из одного состояния в другое.
Других второстепенных героев даже описывать не стоит.
Больше всех порадовал сам маньяк в исполнении Вествика. Очень хорошо сыграна роль тихого психопата, диагноз которого в прямом смысле «по Фрейду». В некоторых ситуациях герой вызывает отвращение и в тоже время сочувствие. Этот герой из разряда «в тихом омуте…». Человек, который каждый раз примеряет на себя разные маски других личностей пуская жертвам пыль в глаза. Отличная игра актера (особенно в заключительной серии) вытянула большую часть сериала, в то время как сценаристы видимо забыли, что детектив должен быть с интересной линией расследования, тем более если преступник известен заранее.
Сериал безусловно достоин внимания в качестве психологической драмы.
За псих драму ставлю
8 из 10
бщее
Полное имя : J:\ПОСЛЕДНИЕ ЗКГРУЗКИ\Zloy Gorod.S01.2015.D.WEB-DLRip - Kirillica.[pirat.ca]\Wicked.City.s01e01.WEB-DLRip.avi
Формат : AVI
Формат/Информация : Audio Video Interleave
Размер файла : 541 Мбайт
Продолжительность : 41 м.
Общий поток : 1831 Кбит/сек
Название фильма : Wicked.City.S01E01.Pilot.720p.WEB-DL.DD2.0-5.1.H.264-CasStudio
Программа кодирования : VirtualDubMod 1.5.10.3 | www.virtualdub-fr.org || (build 2550/release)
Библиотека кодирования : VirtualDubMod build 2550/release
Видео
Идентификатор : 0
Формат : MPEG-4 Visual
Профиль формата : [email protected]
Параметр BVOP формата : Нет
Параметр QPel формата : Нет
Параметр GMC формата : Без точки перехода
Параметр матрицы формата : Default (H.263)
Идентификатор кодека : XVID
Идентификатор кодека/Подсказка : XviD
Продолжительность : 41 м.
Битрейт : 1433 Кбит/сек
Ширина : 720 пикселей
Высота : 400 пикселей
Соотношение сторон : 16:9
Частота кадров : 25,000 кадров/сек
Цветовое пространство : YUV
Субдискретизация насыщенности : 4:2:0
Битовая глубина : 8 бит
Тип развёртки : Прогрессивная
Метод сжатия : С потерями
Бит/(Пиксели*Кадры) : 0.199
Размер потока : 423 Мбайт (78%)
Библиотека кодирования : Lavc56.0.101
Аудио #1
Идентификатор : 1
Формат : AC-3
Формат/Информация : Audio Coding 3
Расширение режима : CM (complete main)
Параметр Endianness формата : Big
Идентификатор кодека : 2000
Продолжительность : 41 м.
Вид битрейта : Постоянный
Битрейт : 192 Кбит/сек
Каналы : 2 канала
Расположение каналов : Front: L R
Частота : 48,0 КГц
Частота кадров : 31,250 кадров/сек (1536 spf)
Метод сжатия : С потерями
Размер потока : 56,7 Мбайт (10%)
Выравнивание : Разделение по промежуткам
Продолжительность промежутка : 40 мс. (1,00 видеокадр)
Время предзагрузки промежутка : 500 мс.
Аудио #2
Идентификатор : 2
Формат : AC-3
Формат/Информация : Audio Coding 3
Расширение режима : CM (complete main)
Параметр Endianness формата : Big
Идентификатор кодека : 2000
Продолжительность : 41 м.
Вид битрейта : Постоянный
Битрейт : 192 Кбит/сек
Каналы : 2 канала
Расположение каналов : Front: L R
Частота : 48,0 КГц
Частота кадров : 31,250 кадров/сек (1536 spf)
Метод сжатия : С потерями
Размер потока : 56,7 Мбайт (10%)
Выравнивание : Разделение по промежуткам
Продолжительность промежутка : 40 мс. (1,00 видеокадр)
Время предзагрузки промежутка : 500 мс.
Download / Скачать

Хотите скачать бесплатно? Зарегистрируйтесь на сайте (ссылка на регистрацию). Pirat.ca - самый быстрый торрент трекер в рунете!

Как скачивать  ·   Что такое торрент  ·   Рейтинг и ограничения

Показать сообщения:    
Ответить на тему

Текущее время: Сегодня 06:21

Часовой пояс: GMT + 4



Вы не можете начинать темы
Вы не можете отвечать на сообщения
Вы не можете редактировать свои сообщения
Вы не можете удалять свои сообщения
Вы не можете голосовать в опросах
Вы не можете прикреплять файлы к сообщениям
Вы не можете скачивать файлы

▼ Вниз