ML
     
  Уважаемый Гость!
Вы можете поддержать проект и зарегистрироваться у наших партнеров - онлайн-стратегия MyLands. При регистрации в игре Вы получите код, который сможете активировать после регистрации на pirat.ca и получить 1000 дублонов.

Ваш код:
fe4e93b754a7c2b306fcfc8bc32532ea1cf59d3b
 
     

Особое мнение / Minority Report / Сезон: 1 / Серии: 1-10 из 10 (Грег Биман / Greg Beeman, ...) [2015 г., Фантастика, детектив, WEB-DLRip] MVO (BaibaKo) + Original (Eng)

Ответить на тему
 
Автор
Сообщение

Пост 26-Авг-2016 21:00

[Q] 

somik

Легенда

-Особое мнение / Minority Report-- Производство: США, 20th Century Fox Television, Amblin Television, Paramount Television
Жанр: Фантастика, детектив
Год выпуска: 2015 г.
Продолжительность: 00:45:00
Мировая премьера: 21 сентября 2015
Перевод: Профессиональный (многоголосый, закадровый) [BaibaKo]
Оригинальный аудиопоток: английский
Режиссер: Грег Биман / Greg Beeman, ...-В ролях: Мэган Гуд, Уилмер Вальдеррама, Ник Зано, Лаура Риган, Старк Сэндс, Коннор Филдинг, Ли Цзюнь Ли, Дэниэл Лондон, Тина Лиффорд, Эндрю Стюарт-Джонс-Описание: Спустя 10 лет после событий фильма один из трех Провидцев пытается вести «нормальную» человеческую жизнь, но по-прежнему преследуется видениями будущего, когда встречает детектива, преследуемую своим прошлым, которая может помочь найти предназначение его дару.-
Качество видео: WEB-DLRip
Контейнер: AVI
Видео кодек: XviD
Аудио кодек: MP3
Видео: 720x400 (1.80:1), 23.976 fps, XviD build 67 ~1498 kbps avg, 0.22 bit/pixel
Аудио: 48 kHz, MPEG Layer 3, 2 ch, ~192.00 kbps avg
Аудио #2: 48 kHz, MPEG Layer 3, 2 ch, ~192.00 kbps avg
Cубтитры: отсутствуют
Особое мнение: Сезон 1
Похвально то, что данный сериал не является ремейком оригинального художественного фильма режиссера Стивена Спилберга. Что не позволяет полностью увлечся в желании сравнивать оба произведения и это малость играет на руку данному сериалу. Так как очевидно, что в кулачном бое с фильмом Спилберга данный сериал был бы разнесен в пух и прах. Даже при том, что продюсером сериал выступил тот же самый Стивен Спилберг.
Оригинальный фильм режиссера Стивена Спилберга безусловно создавал впечатление достаточно мрачной фагтастики с полным лишением ярких красок и абсолютно серой картинкой мира будущего не только визуально, но и эмоционально. Когда как данный сериал созданный Максом Боренштейном представляет собой очередной «процедурал», который сразу же воспринимается типичным телевизионным продуктом. Ярким, сочным, глянцевым, малость бездушным и ярко направленным на развлекательные цели, с чем по сути он и справляется.
Ведь только сдерживая себя от постоянных сравнений с оригинальным фильмом режиссера Стивена Спилберга и просто отключив в себе скептика можно получить хоть какое то удовольствие от происходящего на экране действия. Тем более, что сериал получился безусловно не плохим. Визуально сериал выполнен достаточно не плохо. Экшн сцены смотрятся вполне не плохо по меркам телевизионных сериалов, а экранный мир будущего охотно радует обилием различных гаджетов и технологий, которые так интересно смотрятся на экране.
Сюжет картины также традиционно для телевизионных сериалов развивается сразу в двух направлениях. Когда с одной стороны, каждая новая серия представляет собой прогноз очередного преступления, которое должны предотвратить главные герои, а с другой — попытки Оракулов скрыться от корыстных целей преследующих их органов правительства. Первое смотрится довольно таки не плохо и интересно. Во многом, за счет простоты повествования и достаточной прозрачности детективной интриги картины. Второе же развивается достаточно не стабильно и лишь к последним двум эпизодам приобретает необходимый масштаб, динамику и эмоциональный уровень. Тем самым, заканчивая сезон достаточно не плохо и пробуждая интерес касательно событий возможного второго сезона. Разве что, не давая возможности сериалу мелькнуть хотя бы в одной из серий этому самому «особому мнению», которое было важным элементом художественного фильма Стивена Спилберга, но напрочь отсутствует тут.
Исполнительница главной роли Миган Гуд весьма хороша собой. Особо выдающейся роль не назвать, но в образе крутого женщины-полицейского Миган смотрелась уверенно и охотно радовала глаза своей привлекательностью каждый раз. От Оракулов в исполнении Старка Сэндса, Ника Зано и Лауры Риган так же ожидалось большее, но в принципе все трое актеров сыграли на достаточно хорошем уровне. Отдельно хочется отметить Ли Цзюнь Ли, Акила которой оказалась достаточно ярким и харизматичным персонажем. Даже при том, что ей отведено не столь внушительное количество экранного времени.
7 из 10
Особое мнение — это телевизионное продолжение безусловно одного из лучших произведений режиссера Стивена Спилберга в жанре фантастики, а значит избежать сравнений обоих произведений невозможно. Безусловно данный сериал проигрывает художественному фильму Спилберга во всем, но при отсутствии субъективно также предстаёт в качестве вполне себе не плохого сериала. Достаточно интересного в рамках сюжета, сочного с визуальной точки зрения и достаточно развлекательного. Что еще нужно, если не это?
бщее
Полное имя : J:\ПОСЛЕДНИЕ ЗКГРУЗКИ\Особое мнение.S01.Minority Report.2015.WEB-DLRip - BaibaKo.[pirat.ca]\Minority.Report.s01e01.WEB-DLRip.XviD.Rus.Eng.BaibaKo.tv.avi
Формат : AVI
Формат/Информация : Audio Video Interleave
Размер файла : 612 Мбайт
Продолжительность : 45 м.
Общий поток : 1898 Кбит/сек
Программа кодирования : VirtualDubMod 1.5.10.2 (build 2540/release)
Библиотека кодирования : VirtualDubMod build 2540/release
Видео
Идентификатор : 0
Формат : MPEG-4 Visual
Профиль формата : Advanced [email protected]
Параметр BVOP формата : 2
Параметр QPel формата : Нет
Параметр GMC формата : Без точки перехода
Параметр матрицы формата : Default (H.263)
Идентификатор кодека : XVID
Идентификатор кодека/Подсказка : XviD
Продолжительность : 45 м.
Битрейт : 1500 Кбит/сек
Ширина : 720 пикселей
Высота : 400 пикселей
Соотношение сторон : 16:9
Частота кадров : 23,976 (24000/1001) кадра/сек
Цветовое пространство : YUV
Субдискретизация насыщенности : 4:2:0
Битовая глубина : 8 бит
Тип развёртки : Прогрессивная
Метод сжатия : С потерями
Бит/(Пиксели*Кадры) : 0.217
Размер потока : 483 Мбайт (79%)
Библиотека кодирования : XviD 67
Аудио #1
Идентификатор : 1
Формат : MPEG Audio
Версия формата : Version 1
Профиль формата : Layer 3
Режим : Joint stereo
Расширение режима : MS Stereo
Идентификатор кодека : 55
Идентификатор кодека/Подсказка : MP3
Продолжительность : 45 м.
Вид битрейта : Постоянный
Битрейт : 192 Кбит/сек
Каналы : 2 канала
Частота : 48,0 КГц
Метод сжатия : С потерями
Размер потока : 61,9 Мбайт (10%)
Выравнивание : Соединение по промежуткам
Продолжительность промежутка : 42 мс. (1,00 видеокадр)
Время предзагрузки промежутка : 504 мс.
Аудио #2
Идентификатор : 2
Формат : MPEG Audio
Версия формата : Version 1
Профиль формата : Layer 3
Режим : Joint stereo
Расширение режима : MS Stereo
Идентификатор кодека : 55
Идентификатор кодека/Подсказка : MP3
Продолжительность : 45 м.
Вид битрейта : Постоянный
Битрейт : 192 Кбит/сек
Каналы : 2 канала
Частота : 48,0 КГц
Метод сжатия : С потерями
Размер потока : 61,9 Мбайт (10%)
Выравнивание : Соединение по промежуткам
Продолжительность промежутка : 42 мс. (1,00 видеокадр)
Время предзагрузки промежутка : 504 мс.
Download / Скачать

Хотите скачать бесплатно? Зарегистрируйтесь на сайте (ссылка на регистрацию). Pirat.ca - самый быстрый торрент трекер в рунете!

Как скачивать  ·   Что такое торрент  ·   Рейтинг и ограничения

shchurok90

Штурман

Пост 27-Авг-2016 00:30 (спустя 3 часа)

[Q] 

Как сериал? отпишитесь хоть
[Профиль]  [ЛС] 
Показать сообщения:    
Ответить на тему

Текущее время: Сегодня 14:32

Часовой пояс: GMT + 4



Вы не можете начинать темы
Вы не можете отвечать на сообщения
Вы не можете редактировать свои сообщения
Вы не можете удалять свои сообщения
Вы не можете голосовать в опросах
Вы не можете прикреплять файлы к сообщениям
Вы не можете скачивать файлы

▼ Вниз