ML
     
  Уважаемый Гость!
Вы можете поддержать проект и зарегистрироваться у наших партнеров - онлайн-стратегия MyLands. При регистрации в игре Вы получите код, который сможете активировать после регистрации на pirat.ca и получить 1000 дублонов.

Ваш код:
e93cd9e43017f251127f220889864c05934e61c6
 
     

Конец детства / Childhood's End / Сезон: 1 / Серии: 1-6 из 6 (Ник Харран / Nick Hurran) [2015 г., фантастика, WEB-DLRip] MVO (BaibaKo) + Original (Eng)

Тема закрыта
 
Автор
Сообщение

Пост 26-Авг-2016 21:29

[Q] 

somik

Легенда

-Конец детства / Childhood's End-- Производство: США, DNegTV, Artifex Studios Ltd. визуальные эффекты, Makeup Effects Group Studio
Жанр: фантастика
Год выпуска: 2015 г.
Продолжительность: 00:43:00
Мировая премьера: 14 декабря 2015
Перевод: Профессиональный (многоголосый, закадровый) [BaibaKo]
Оригинальный аудиопоток: английский
Режиссер: Ник Харран / Nick Hurran-В ролях: Дэйзи Беттс, Чарльз Дэнс, Ози Икхайл, Джулиан МакМэхон, Колм Мини, Яэль Стоун, Майк Фогель, Эшли Цукерман, Лачлан Роланд-Кенн, Джейкоб Холт и др.-Описание: Шестисерийная телеадаптация одноимённой книги Артура Ч. Кларка, признанной революционной работой в научной фантастике. "Конец детства" расскажет о мирном вторжении на Землю таинственных Сверхправителей, прибытие которых знаменует начало десятилетий утопии по инопланетным правилам, в ущерб человеческой идентичности и культуре.-
Качество видео: WEB-DLRip
Контейнер: AVI
Видео кодек: XviD
Аудио кодек: MP3
Видео: 720x400 (1.80:1), 23.976 fps, XviD build 50 ~1521 kbps avg, 0.22 bit/pixel
Аудио: 48 kHz, MPEG Layer 3, 2 ch, ~128.00 kbps avg
Аудио #2: 48 kHz, MPEG Layer 3, 2 ch, ~128.00 kbps avg
Cубтитры: отсутствуют
В конце мини-сериала звучит романс для скрипки с оркестром Ральфа Вон Уильямса (1872-1958), написанный на стихотворение Джорджа Мередита (1828-1909) «Взлетающий жаворонок».
Из радиоприёмника в доме Стормгренов звучит музыка 1950-х годов, десятилетия, когда был опубликован одноимённый роман Артура Кларка.
Сезон первый и последний
Печальный сериал «Конец детства» по книге ныне покойного старомодного фантаста Кларка. Сюжет периодически проседает, глупостей и нестыковок если не вагон, то уж точно не маленькая тележка, актёры оставляют желать лучшего.
Но это первое за многие годы произведение масскульта, ставящее действительно важные и глобальные вопросы — о смысле жизни, о том, что есть истина, о предназначении человечества, о том, камо оно грядёт и бредёт. Вопросы, не поставив которые, человек в полной мере не является человеком. Первое за многие годы. А значит, недостатки не так и важны.
Рекомендую всем, кому надоели однообразные телеистории о том, как добропорядочная дивчинка не даёт добропорядочному хлопчику до последней серии, или кислотники с развратниками варят коксовые пельмени, или жулики с бандитами делят краденый миллион, или милый сыщик-эксцентрик расследует таинственное убийство миссис Поттинггон Послтуэйт III. Всем, кто навсегда болен загадкой мироздания, кто видит высшее предназначение сомнительного рода homo в том, чтобы познавать окружающий мир и себя.
Общее
Полное имя : J:\ПОСЛЕДНИЕ ЗКГРУЗКИ\Konec Detstva.(Childhood's End).S01.2015.WEB-DLRip - BaibaKo.[pirat.ca]\Childhoods End.S01E01.WEB-DLRip.RusEng.BaibaKo.L.avi
Формат : AVI
Формат/Информация : Audio Video Interleave
Размер файла : 550 Мбайт
Продолжительность : 42 м.
Общий поток : 1793 Кбит/сек
Программа кодирования : VirtualDubMod 1.5.10.3 (build 2550/release)
Библиотека кодирования : VirtualDubMod build 2550/release
Видео
Идентификатор : 0
Формат : MPEG-4 Visual
Профиль формата : Advanced [email protected]
Параметр BVOP формата : 1
Параметр QPel формата : Нет
Параметр GMC формата : Без точки перехода
Параметр матрицы формата : Default (H.263)
Идентификатор кодека : XVID
Идентификатор кодека/Подсказка : XviD
Продолжительность : 42 м.
Битрейт : 1523 Кбит/сек
Ширина : 720 пикселей
Высота : 400 пикселей
Соотношение сторон : 16:9
Частота кадров : 23,976 (23976/1000) кадра/сек
Цветовое пространство : YUV
Субдискретизация насыщенности : 4:2:0
Битовая глубина : 8 бит
Тип развёртки : Прогрессивная
Метод сжатия : С потерями
Бит/(Пиксели*Кадры) : 0.221
Размер потока : 468 Мбайт (85%)
Библиотека кодирования : XviD 1.2.1 (UTC 2008-12-04)
Аудио #1
Идентификатор : 1
Формат : MPEG Audio
Версия формата : Version 1
Профиль формата : Layer 3
Режим : Joint stereo
Расширение режима : MS Stereo
Идентификатор кодека : 55
Идентификатор кодека/Подсказка : MP3
Продолжительность : 42 м.
Вид битрейта : Постоянный
Битрейт : 128 Кбит/сек
Каналы : 2 канала
Частота : 48,0 КГц
Метод сжатия : С потерями
Размер потока : 39,3 Мбайт (7%)
Выравнивание : Соединение по промежуткам
Продолжительность промежутка : 42 мс. (1,00 видеокадр)
Время предзагрузки промежутка : 504 мс.
Аудио #2
Идентификатор : 2
Формат : MPEG Audio
Версия формата : Version 1
Профиль формата : Layer 3
Режим : Joint stereo
Расширение режима : MS Stereo
Идентификатор кодека : 55
Идентификатор кодека/Подсказка : MP3
Продолжительность : 42 м.
Вид битрейта : Постоянный
Битрейт : 128 Кбит/сек
Каналы : 2 канала
Частота : 48,0 КГц
Метод сжатия : С потерями
Размер потока : 39,3 Мбайт (7%)
Выравнивание : Соединение по промежуткам
Продолжительность промежутка : 42 мс. (1,00 видеокадр)
Время предзагрузки промежутка : 504 мс.
Download / Скачать

Хотите скачать бесплатно? Зарегистрируйтесь на сайте (ссылка на регистрацию). Pirat.ca - самый быстрый торрент трекер в рунете!

Как скачивать  ·   Что такое торрент  ·   Рейтинг и ограничения

Показать сообщения:    
Тема закрыта

Текущее время: Сегодня 04:24

Часовой пояс: GMT + 4



Вы не можете начинать темы
Вы не можете отвечать на сообщения
Вы не можете редактировать свои сообщения
Вы не можете удалять свои сообщения
Вы не можете голосовать в опросах
Вы не можете прикреплять файлы к сообщениям
Вы не можете скачивать файлы

▼ Вниз