ML
     
  Уважаемый Гость!
Вы можете поддержать проект и зарегистрироваться у наших партнеров - онлайн-стратегия MyLands. При регистрации в игре Вы получите код, который сможете активировать после регистрации на pirat.ca и получить 1000 дублонов.

Ваш код:
5af7de75d3db09b6a37bc8bab71b0e87ccde73d6
 
     

База Куантико / Quantico / Сезон: 1 / Серии: 1-22 из 22 (Марк Манден / Marc Munden, ...) [2015 г., триллер, драма, детектив, WEB-DLRip] Dub (Кириллица) + Original (Eng) + SUB (RUS, ENG)

Ответить на тему
 
Автор
Сообщение

Пост 26-Авг-2016 22:30

[Q] 

somik

Легенда

-База Куантико / Quantico-- Производство: США, ABC Studios. ...
Жанр: триллер, драма, детектив
Год выпуска: 2015 г.
Продолжительность: 00:43:00
Мировая премьера: 27 сентября 2015
Российская премьера: 29 октября 2015
Перевод: Профессиональный (полное дублирование) [Кириллица]
Оригинальный аудиопоток: английский
Режиссер: Марк Манден / Marc Munden, ...-В ролях: Приянка Чопра, Онжаню Эллис, Джейк МакЛафлин, Ясмин Эл Массри, Джоанна Э. Брэдди, Тейт Эллингтон, Грэхэм Роджерс, Анабель Акоста, Анна Хайа, Диллон Мэтьюз и др.-Описание: Шесть совершенно разных новобранцев поступают на стажировку в ФБР на базу Куантико в штате Вирджиния. Базой руководит Миранда Шоу, первая женщина на высшей должности в ФБР. Миранда объединяется со своим бывшим партнером, Лиамом О`Коннором, который ныне работает советником, чтобы отобрать лучших новобранцев в агенты. Тем не менее в будущем один из новобранцев будет подозреваемым в планировании крупнейшего с 11 сентября террористического акта по Нью-Йорку.-
Качество видео: WEB-DLRip
Контейнер: AVI
Видео кодек: XviD
Аудио кодек: AC3
Видео: 720x400 (1.80:1), 23.976 fps, XviD build 73 ~1498 kbps avg, 0.22 bit/pixel
Аудио: 48 kHz, AC3 Dolby Digital, 2/0 (L,R) ch, ~192 kbps
Аудио #2: 48 kHz, AC3 Dolby Digital, 2/0 (L,R) ch, ~192 kbps
Cубтитры: русские, английские
Формат субтитров: softsub (SSA/ASS)
Доп. информация о субтитрах: внешние
Рецензия на сериал «Куантико»
27 сентября на канале «ABC» состоялась премьера многообещающего телесериала «Куантико», созданного сценаристами Джошуа Сафраном и Марком Гордоном.
Сериал рассказывает о событиях на базе Куантико в Вирджинии, США. В центре сюжета находится группа новобранцев, только приступивших к стажировке в ФБР. Один из них является террористом и позже, как показывает флешфорвард в середине уже первой серии, он или она совершит крупнейший теракт в Нью-Йорке с событий 11 сентября 2001 года.
О том, кто именно является террористом, не знают ни герои, ни зрители. Собственно, именно на разгадывании этого вопроса и строится весь сюжет. Нам показывают и события настоящего, и моменты из прошлого молодых агентов ФБР, в которых могут быть подсказки.
Каждый персонаж уникален и по-своему интересен, за плечами каждого находится своя история. Из-за этого узнавать их становится ещё увлекательнее. При просмотре этого сериала ощущаешь себя настоящим детективом, расследующим дело.
Сериал наполнен драматическими событиями, которые захватывают дыхание и заставляют переживать. Но в то же время и юмора в нём хватает. Таким образом, его можно сравнить с потоком эмоций — положительные сменяются отрицательными, или наоборот, и это длится на протяжении всей серии.
Однако помимо основной развлекательной функции телесериал справляется и с более серьёзными задачами. В нём поднимаются такие общественные проблемы, как расизм, сексизм, домашнее насилие и т. д. Если остальные современные сериалы зачастую показывают мир, в котором всего этого просто не существует, то «Куантико» стремится отразить в себе настоящую реальность со всеми её несовершенствами.
В целом, отзывы критиков оказались положительными, и у сериала есть все шансы стать хитом этого сезона.
Общее
Полное имя : F:\!СЕРИАЛЫ\Куантико\Quantico.S01.WEB-DLRip.DUB.[pirat.ca]\Quantico.S01E01.WEB-DLRip.avi
Формат : AVI
Формат/Информация : Audio Video Interleave
Размер файла : 584 Мбайт
Продолжительность : 43 м.
Общий поток : 1897 Кбит/сек
Программа кодирования : VirtualDubMod 1.5.10.3 | www.virtualdub-fr.org || (build 2550/release)
Библиотека кодирования : VirtualDubMod build 2550/release
Видео
Идентификатор : 0
Формат : MPEG-4 Visual
Профиль формата : Advanced [email protected]
Параметр BVOP формата : 1
Параметр QPel формата : Нет
Параметр GMC формата : Без точки перехода
Параметр матрицы формата : Default (MPEG)
Идентификатор кодека : XVID
Идентификатор кодека/Подсказка : XviD
Продолжительность : 43 м.
Битрейт : 1499 Кбит/сек
Ширина : 720 пикселей
Высота : 400 пикселей
Соотношение сторон : 16:9
Частота кадров : 23,976 (23976/1000) кадра/сек
Цветовое пространство : YUV
Субдискретизация насыщенности : 4:2:0
Битовая глубина : 8 бит
Тип развёртки : Прогрессивная
Метод сжатия : С потерями
Бит/(Пиксели*Кадры) : 0.217
Размер потока : 461 Мбайт (79%)
Библиотека кодирования : XviD 73
Аудио #1
Идентификатор : 1
Формат : AC-3
Формат/Информация : Audio Coding 3
Расширение режима : CM (complete main)
Параметр Endianness формата : Big
Идентификатор кодека : 2000
Продолжительность : 43 м.
Вид битрейта : Постоянный
Битрейт : 192 Кбит/сек
Каналы : 2 канала
Расположение каналов : Front: L R
Частота : 48,0 КГц
Частота кадров : 31,250 кадров/сек (1536 spf)
Метод сжатия : С потерями
Размер потока : 59,1 Мбайт (10%)
Выравнивание : Разделение по промежуткам
Продолжительность промежутка : 42 мс. (1,00 видеокадр)
Время предзагрузки промежутка : 500 мс.
Аудио #2
Идентификатор : 2
Формат : AC-3
Формат/Информация : Audio Coding 3
Расширение режима : CM (complete main)
Параметр Endianness формата : Big
Идентификатор кодека : 2000
Продолжительность : 43 м.
Вид битрейта : Постоянный
Битрейт : 192 Кбит/сек
Каналы : 2 канала
Расположение каналов : Front: L R
Частота : 48,0 КГц
Частота кадров : 31,250 кадров/сек (1536 spf)
Метод сжатия : С потерями
Размер потока : 59,1 Мбайт (10%)
Выравнивание : Разделение по промежуткам
Продолжительность промежутка : 42 мс. (1,00 видеокадр)
Время предзагрузки промежутка : 500 мс.
Download / Скачать

Хотите скачать бесплатно? Зарегистрируйтесь на сайте (ссылка на регистрацию). Pirat.ca - самый быстрый торрент трекер в рунете!

Как скачивать  ·   Что такое торрент  ·   Рейтинг и ограничения

Показать сообщения:    
Ответить на тему

Текущее время: Сегодня 14:13

Часовой пояс: GMT + 4



Вы не можете начинать темы
Вы не можете отвечать на сообщения
Вы не можете редактировать свои сообщения
Вы не можете удалять свои сообщения
Вы не можете голосовать в опросах
Вы не можете прикреплять файлы к сообщениям
Вы не можете скачивать файлы

▼ Вниз