ML
     
  Уважаемый Гость!
Вы можете поддержать проект и зарегистрироваться у наших партнеров - онлайн-стратегия MyLands. При регистрации в игре Вы получите код, который сможете активировать после регистрации на pirat.ca и получить 1000 дублонов.

Ваш код:
73640f24f8a0f579e128ea7346fd2db2b1009143
 
     

Беовульф: Возвращение в Шилдлендс / Beowulf: Return to the Shieldlands / Сезон: 1 / Серии: 1-12 из 12 (Джон Ист / Jon East, ...) [2016 г., фэнтези, боевик, драма, приключения, WEB-DL, 720p] MVO (BaibaKo)

Ответить на тему
 
Автор
Сообщение

Пост 27-Авг-2016 00:01

[Q] 

somik

Легенда

-Беовульф: Возвращение в Шилдлендс / Beowulf: Return to the Shieldlands-- Производство: США, Independent Television (ITV), ITV Studios
Жанр: фэнтези, боевик, драма, приключения
Год выпуска: 2016 г.
Продолжительность: 00:43:00
Мировая премьера: 3 января 2016
Перевод: Профессиональный (многоголосый, закадровый) [BaibaKo]
Режиссер: Джон Ист / Jon East, ...-В ролях: Кирсти Освальд, Пабло Вердехо, Дэвид Аджала, Джои Анса, Киран Бью, Лолита Чакрабарти, Уильям Хёрт, Алекс Прайс, Иан Палстон-Дэвис и др.-Описание: Местом действия фэнтези-драмы станут полные опасности бескрайние земли Шилдленда, населенного не только людьми, но и всевозможными фантастическими существами. В центре сюжета окажется скандинавский воин-наемник Беовульф. Спустя многие годы, проведенные в скитаниях и сражениях, Беовульф возвращается в Хеорот, засвидетельствовать свое почтение к недавно умершему правителю и давнему другу Хродгару. Но когда на Хеорот нападает ужасное чудовище Грендель, Беовульфу не остается ничего другого, кроме как сразиться с чудовищем, завоевав благосклонность новой правительницы Таны и всего народа.-
Качество видео: WEB-DL
Контейнер: MKV
Стандарт разрешения: 720p
Видео кодек: MPEG4 AVC
Аудио кодек: AC3
Видео: 5152 kbps, 1920x1080, 25,000 fps
Аудио: AC3, 2 ch, 384 kbps, 48,0 kHz
Cубтитры: отсутствуют
С самого начала первой же серии мы видим мир наподобие средневековья, съемки весьма впечатляющие, и качество спецэффектов тоже не подкачало.
Но, поначалу, конечно, сериал отдает какой-то наивностью, а также наигранностью действия. Некоторые сюжетные повороты настолько предсказуемы, что их видно еще за 20 минут до того, как что-то произойдет, и это при формате сериала 40 минут/серия.
Но после просмотра первых 3 серий начинается более интересное зрелище, хотя от наивности и предсказуемости особо избавиться не удалось, появляется насыщенность действий, экшн сцены, баталии и прочее. Сериал становится лучше и уже на данный момент вышло 9 серий, и последние серии намного лучше того, с чего они начали.
Порой не могу отделаться от ощущения, что создатели попытались снять что-то среднее между игрой престолов и вселенной Скайрима.
В итоге, на самом деле главным минусом сериала является явный недостаток массовки.
Ну как может кучка из 10 грабителей ограбить и опустошить столицу Хеорота. Судя по кадрам, в столице живет человек 30, не больше, и это, конечно, упущение создателей сериала. А в целом все смотрится симпатично, над костюмами тут хорошо поработали.
В итоге, с учетом положительной динамики от серии к серии ставлю сериалу
8 из 10
Общее
Уникальный идентификатор : 214121939805708268879902297332316233891 (0xA11662B434784913984C82AF0259E0A3)
Полное имя : E:\!СЕРИАЛЫ\Беовульф\Beowulf.S01.HD720p.BaibaKo.[pirat.ca]\Beowulf.Return.To.The.Shieldlands.s01e01.HD720p.WEB-DL.Rus.Eng.BaibaKo.mkv
Формат : Matroska
Версия формата : Version 2
Размер файла : 1,78 Гбайт
Продолжительность : 45 м.
Общий поток : 5648 Кбит/сек
Дата кодирования : UTC 2016-08-26 18:46:54
Программа кодирования : mkvmerge v5.3.0 ('I could have danced') built on Feb 9 2012 10:38:07
Библиотека кодирования : libebml v1.2.3 + libmatroska v1.3.0
Видео
Идентификатор : 1
Формат : AVC
Формат/Информация : Advanced Video Codec
Профиль формата : [email protected]
Параметр CABAC формата : Да
Параметр ReFrames формата : 4 кадра
Идентификатор кодека : V_MPEG4/ISO/AVC
Продолжительность : 45 м.
Битрейт : 5152 Кбит/сек
Ширина : 1920 пикселей
Высота : 1080 пикселей
Соотношение сторон : 16:9
Режим частоты кадров : Постоянный
Частота кадров : 25,000 кадров/сек
Цветовое пространство : YUV
Субдискретизация насыщенности : 4:2:0
Битовая глубина : 8 бит
Тип развёртки : Прогрессивная
Бит/(Пиксели*Кадры) : 0.099
Размер потока : 1,62 Гбайт (91%)
Default : Нет
Forced : Нет
Цветовой диапазон : Limited
Основные цвета : BT.709
Характеристики трансфера : BT.709
Коэффициенты матрицы : BT.709
Statistics Tags Issue : mkvmerge v7.3.0 ('Nouages') 32bit built on Oct 22 2014 18:44:01 2015-12-29 09:33:21 / mkvmerge v5.3.0 ('I could have danced') built on Feb 9 2012 10:38:07 2016-08-26 18:46:54
FromStats_BitRate : 5262479
FromStats_Duration : 00:45:03.080000000
FromStats_FrameCount : 67577
FromStats_StreamSize : 1778112903
Аудио
Идентификатор : 2
Формат : AC-3
Формат/Информация : Audio Coding 3
Расширение режима : CM (complete main)
Параметр Endianness формата : Big
Идентификатор кодека : A_AC3
Продолжительность : 45 м.
Вид битрейта : Постоянный
Битрейт : 384 Кбит/сек
Каналы : 2 канала
Расположение каналов : Front: L R
Частота : 48,0 КГц
Частота кадров : 31,250 кадров/сек (1536 spf)
Метод сжатия : С потерями
Размер потока : 124 Мбайт (7%)
Язык : Russian
Default : Да
Forced : Нет
Statistics Tags Issue : mkvmerge v7.3.0 ('Nouages') 32bit built on Oct 22 2014 18:44:01 2015-12-29 09:33:21 / mkvmerge v5.3.0 ('I could have danced') built on Feb 9 2012 10:38:07 2016-08-26 18:46:54
FromStats_BitRate : 384000
FromStats_Duration : 00:45:03.104000000
FromStats_FrameCount : 84472
FromStats_StreamSize : 129748992
Download / Скачать

Хотите скачать бесплатно? Зарегистрируйтесь на сайте (ссылка на регистрацию). Pirat.ca - самый быстрый торрент трекер в рунете!

Как скачивать  ·   Что такое торрент  ·   Рейтинг и ограничения

jofrei53

Корсар

Пост 27-Авг-2016 14:58 (спустя 14 часов)

[Q] 

ОГРОМНОЕ Спасибо!!! Автору респект!!! Лови бочку
[Профиль]  [ЛС] 

reha86

Лоцман

Пост 07-Окт-2016 09:23 (спустя 1 месяц 10 дней)

[Q] 

Второй сезон начали снимать?
[Профиль]  [ЛС] 

somik ®

Легенда

26754

Пост 07-Окт-2016 09:43 (спустя 19 минут)

[Q] 

768488Второй сезон начали снимать?
""...Выход второго сериала пока находится под вопросом – сначала в интервью создатели сериала говорили о возможности продления контрактов с актерами и поиске новых героев для следующего сезона. Однако по результатам низких рейтингов первого сезона все работы были приостановлены. На данный момент судьба сериала остается под вопросом. "

_________________
Всё когда-нибудь уже было... В интернете!
[Профиль]  [ЛС] 
Показать сообщения:    
Ответить на тему

Текущее время: Сегодня 22:34

Часовой пояс: GMT + 4



Вы не можете начинать темы
Вы не можете отвечать на сообщения
Вы не можете редактировать свои сообщения
Вы не можете удалять свои сообщения
Вы не можете голосовать в опросах
Вы не можете прикреплять файлы к сообщениям
Вы не можете скачивать файлы

▼ Вниз