ML
     
  Уважаемый Гость!
Вы можете поддержать проект и зарегистрироваться у наших партнеров - онлайн-стратегия MyLands. При регистрации в игре Вы получите код, который сможете активировать после регистрации на pirat.ca и получить 1000 дублонов.

Ваш код:
ee1288b6f7c09d9d2cb2a0f972aba30460ce9333
 
     

Второй шанс / Second Chance / Сезон: 1 / Серии: 1-11 из 11 (Сара Пиа Андерсон / Sarah Pia Anderson, ...) [2016 г., фантастика, WEB-DLRip] MVO (BaibaKo) + Original (Eng)

Ответить на тему
 
Автор
Сообщение

Пост 27-Авг-2016 00:29

[Q] 

somik

Легенда

-Второй шанс / Second Chance-- Производство: США, 20th Century Fox Television, ...
Жанр: фантастика
Год выпуска: 2016 г.
Продолжительность: 00:45:00
Мировая премьера: 13 января 2016
Перевод: Профессиональный (многоголосый, закадровый) [BaibaKo]
Оригинальный аудиопоток: английский
Режиссер: Сара Пиа Андерсон / Sarah Pia Anderson, ...-В ролях: Роберт Казински, Адхир Кальян, Тим ДиКей, Дилшад Вадсариа, Филип Бейкер Холл, Сиэра Браво, Хезер Д. Бенуа и др.-Описание: Когда 75-летнего шерифа убивают, он обретает шанс на новую жизнь. Учёные возвращают его в мир живых — он становится своеобразной версией Франкенштейна, получившей сверхсилу и вернувшей молодость. Теперь главному герою этой истории предстоит разобраться в том, по какой причине и кто именно его убил.-
Качество видео: WEB-DLRip
Контейнер: AVI
Видео кодек: XviD
Аудио кодек: MP3
Видео: 720x400 (1.80:1), 23.976 fps, XviD build 64 ~1506 kbps avg, 0.22 bit/pixel
Аудио: 48 kHz, MPEG Layer 3, 2 ch, ~192.00 kbps avg
Аудио #2: 48 kHz, MPEG Layer 3, 2 ch, ~192.00 kbps avg
Cубтитры: отсутствуют
Список серий:
Подходящий донор (A Suitable Donor)
Ещё одна насечка (One More Notch)
Из мрака - к солнцу (From Darkness, The Sun)
Допуск (Admissions)
(Scratch That Glitch)
Палимпсест (Palimpsest)
Тот раз в машине (That Time In the Car)
(May Old Acquaintance Be Forgot)
(When You Have to Go There, They Have to Take You In)
Забота (Geworfenheit)
Безмятежность (Gelassenheit)
Интересная новинка
10 серий просмотрено. Сюдя по динамике сюжета сезон подходит к концу, но у зрителя только разгорается неуемный аппетит к сериалу.
Интересно, динамично.
Харизма главного героя очень радует. Его некоторая обесбашенность: человека, который был долгое время ограничен возрастом и дряхлым телом, а теперь все возможности его. И только одно маленькое ограничение…
Для Джимми Притчарда это реально второй шанс исправить ошибки прошлой жизни, наладить отношения с дорогими людьми и возможность пересмотреть некоторые свои ценности, которые явно отличаются от общепринятых.
Роберт Казински очень органично смотрится в этой роли.
Весь актерский состав подобран отлично. Мери и Отто Гудвин, близнецы, которые смогли использовать гениальность Отто, чтобы создать империю. Люди, которые всю жизнь жили, как одно целое, подошли к этапу сепарации. Запоздавшему, поэтому болезненному.
Дюваль Притчард. На первый взгляд полная противоположность отцу: правильный, собранный, ответственный. Но только на первый взгляд. Его герой живой и интересный.
Грейси и Хелен Притчарды. Они дополняют картину семьи Притчардов. Ведь это принадлежность к клану, в котором не все безоблачно, но значит многое для каждого из его членов.
С нетерпением жду новых серий.
9 из 10
Общее
Полное имя : J:\ПОСЛЕДНИЕ ЗКГРУЗКИ\Second Chance.S01.2016.WEB-DLRip.BaibaKo.[pirat.ca]\Second.Chance.S01E01.WEB-DLRip.Rus.Eng.DV.BaibaKo.avi
Формат : AVI
Формат/Информация : Audio Video Interleave
Размер файла : 615 Мбайт
Продолжительность : 45 м.
Общий поток : 1906 Кбит/сек
Название фильма : Second.Chance.S01E01.WEB-DLRip.Rus.Eng.DV.BaibaKo
Программа кодирования : VirtualDubModRus 1.5.10.2 (build 2542/release)
Видео
Идентификатор : 0
Формат : MPEG-4 Visual
Профиль формата : Advanced [email protected]
Параметр BVOP формата : 2
Параметр QPel формата : Нет
Параметр GMC формата : Без точки перехода
Параметр матрицы формата : Default (H.263)
Идентификатор кодека : XVID
Идентификатор кодека/Подсказка : XviD
Продолжительность : 45 м.
Битрейт : 1507 Кбит/сек
Ширина : 720 пикселей
Высота : 400 пикселей
Соотношение сторон : 16:9
Частота кадров : 23,976 (24000/1001) кадра/сек
Цветовое пространство : YUV
Субдискретизация насыщенности : 4:2:0
Битовая глубина : 8 бит
Тип развёртки : Прогрессивная
Метод сжатия : С потерями
Бит/(Пиксели*Кадры) : 0.218
Размер потока : 487 Мбайт (79%)
Заголовок : Rip by DriverV / NNM-Club
Библиотека кодирования : XviD 64
Аудио #1
Идентификатор : 1
Формат : MPEG Audio
Версия формата : Version 1
Профиль формата : Layer 3
Режим : Joint stereo
Идентификатор кодека : 55
Идентификатор кодека/Подсказка : MP3
Продолжительность : 45 м.
Вид битрейта : Постоянный
Битрейт : 192 Кбит/сек
Каналы : 2 канала
Частота : 48,0 КГц
Метод сжатия : С потерями
Задержка видео : 22 мс.
Размер потока : 62,0 Мбайт (10%)
Выравнивание : Разделение по промежуткам
Продолжительность промежутка : 42 мс. (1,00 видеокадр)
Время предзагрузки промежутка : 500 мс.
Аудио #2
Идентификатор : 2
Формат : MPEG Audio
Версия формата : Version 1
Профиль формата : Layer 3
Режим : Joint stereo
Идентификатор кодека : 55
Идентификатор кодека/Подсказка : MP3
Продолжительность : 45 м.
Вид битрейта : Постоянный
Битрейт : 192 Кбит/сек
Каналы : 2 канала
Частота : 48,0 КГц
Метод сжатия : С потерями
Задержка видео : 22 мс.
Размер потока : 62,0 Мбайт (10%)
Выравнивание : Разделение по промежуткам
Продолжительность промежутка : 42 мс. (1,00 видеокадр)
Время предзагрузки промежутка : 500 мс.
Download / Скачать

Хотите скачать бесплатно? Зарегистрируйтесь на сайте (ссылка на регистрацию). Pirat.ca - самый быстрый торрент трекер в рунете!

Как скачивать  ·   Что такое торрент  ·   Рейтинг и ограничения

jofrei53

Корсар

Пост 27-Авг-2016 15:01 (спустя 14 часов)

[Q] 

Спасибо! Посмотрим... Спасибо!!! Автору респект!!!
[Профиль]  [ЛС] 
Показать сообщения:    
Ответить на тему

Текущее время: Сегодня 18:21

Часовой пояс: GMT + 4



Вы не можете начинать темы
Вы не можете отвечать на сообщения
Вы не можете редактировать свои сообщения
Вы не можете удалять свои сообщения
Вы не можете голосовать в опросах
Вы не можете прикреплять файлы к сообщениям
Вы не можете скачивать файлы

▼ Вниз