ML
     
  Уважаемый Гость!
Вы можете поддержать проект и зарегистрироваться у наших партнеров - онлайн-стратегия MyLands. При регистрации в игре Вы получите код, который сможете активировать после регистрации на pirat.ca и получить 1000 дублонов.

Ваш код:
a978488e62322cd72e113ab723b8a7fdc10eb9b9
 
     

Живая мишень / Human Target / Сезон: 1-2 / Серии: 1-25 из 25 (Стив Бойум Steve Boyum, ...) [2010 г., боевик, триллер, WEB-DLRip] MVO (LostFilm)

Ответить на тему
 
Автор
Сообщение

Пост 27-Авг-2016 03:41

[Q] 

somik

Легенда

-Живая мишень / Human Target-- Производство: США, Bonanza Productions, DC Entertainment, Human Target Films, Warner Bros. Television, ...
Жанр: боевик, триллер
Год выпуска: 2010 г.
Продолжительность: 00:43:00
Мировая премьера: 15 января 2010
Перевод: Профессиональный (многоголосый, закадровый) [LostFilm]
Режиссер: Стив Бойум Steve Boyum, ...-В ролях: Марк Вэлли, Чи МакБрайд, Джеки Эрл Хейли, Индира Варма, Джанет Монтгомери, Ленни Джеймс, Эммануэль Вожье, Леонор Варела, Отем Ризер, Тони Хейл-Описание: Только храбрый и самоотверженный человек может стать живой мишенью для того, чтобы спасти жизнь другому. Human Target — основанная на одноименном комиксе экшн-драма, главный герой которой — Кристофер Чэнс, единственный в своем роде частный охранник. Называть его можно как угодно — защитником, охранником или телохранителем, но для Чэнса главное одно — спасти жизнь своего клиента.
Когда угрозу убийства невозможно ликвидировать стандартными методами, Чэнс полностью вливается в жизнь клиента и становится мишенью для убийцы. Если менеджеру корпорации угрожает уволенный подчиненный, Чэнс становится аудитором корпорации. Если президенту банка сообщили о намечающейся краже, Чэнс станет банковским клерком.
В каждом деле Кристоферу помогают его бизнес-партнер Уинстон и фрилансер Герреро. В каждом деле Кристофер становится на линию огня и пытается спасти клиента, раскрывая тайны заговора. Во время каждого дела мы немного узнаем и о самом Чэнсе. Знает ли кто-нибудь, кто такой этот Кристофер Чэнс, и какие секреты похоронены у него в прошлом? Что заставляет его каждый раз становиться живой мишенью?-
Качество видео: WEB-DLRip
Контейнер: AVI
Видео кодек: XviD
Аудио кодек: MP3
Видео: 720x400 (1.80:1), 23.976 fps, XviD build 50 ~1299 kbps avg, 0.19 bit/pixel
Аудио: 48 kHz, MPEG Layer 3, 2 ch, ~128.00 kbps avg
Cубтитры: отсутствуют
После отсмотренных двух эпизодов этого сериала можно сказать, что это что-то новое! Невероятно захватывающий, динамичный сериал, от просмотра которого невозможно оторваться. Сорок пять минут пролетают как сорок пять секунд. Что действительно понравилось — так это идея сериала! Человек, работа которого спасать жизнь клиента любой ценой, становится живой мишенью. Причем самое интересное то, как охотно он соглашается на эту работу. Без страха и сомнений. Значит есть на то причины, которые скрывает главный герой.
Теперь о героях. Уинстон — начальник Криса. С виду очень серьезный и брутальный, но в душе очень переживает за своего коллегу и всячески помогает ему в тех или иных ситуациях.
Герреро. Таинственный помощник Криса в исполнении Джеки Эрл Хейли. Очень приятно и в то же время неожиданно видеть его в таком амплуа. Пожалуй самый интересный персонаж после Криса.
Ну и конечно же сам Кристофер Ченс. Уверенный, бесстрашный и знающий свое дело человек, для которого жизнь клиента стоит выше своей собственной.
Подводя итоги, можно сказать, что если вам захотелось чего то нового и вы подустали от «Хауса», «Теории Лжи», «Героев» и прочих полюбившихся вам, но поднадоевших сериалов, то «Живая Мишень» — это глоток свежего воздуха.
10 из 10
Общее
Полное имя : J:\ПОСЛЕДНИЕ ЗКГРУЗКИ\Human Target.S01-02.WEB-DLRip.LostFilm.[pirat.ca]\Human.Target.s01e01.avi
Формат : AVI
Формат/Информация : Audio Video Interleave
Размер файла : 444 Мбайт
Продолжительность : 43 м.
Общий поток : 1437 Кбит/сек
Название фильма : Human.Target.s01e01
Программа кодирования : VirtualDubMod 1.5.10.2 (build 2540/release)
Видео
Идентификатор : 0
Формат : MPEG-4 Visual
Профиль формата : Advanced [email protected]
Параметр BVOP формата : 1
Параметр QPel формата : Нет
Параметр GMC формата : Без точки перехода
Параметр матрицы формата : Default (MPEG)
Идентификатор кодека : XVID
Идентификатор кодека/Подсказка : XviD
Продолжительность : 43 м.
Битрейт : 1300 Кбит/сек
Ширина : 720 пикселей
Высота : 400 пикселей
Соотношение сторон : 16:9
Частота кадров : 23,976 (23976/1000) кадра/сек
Цветовое пространство : YUV
Субдискретизация насыщенности : 4:2:0
Битовая глубина : 8 бит
Тип развёртки : Прогрессивная
Метод сжатия : С потерями
Бит/(Пиксели*Кадры) : 0.188
Размер потока : 401 Мбайт (90%)
Библиотека кодирования : XviD 1.2.1 (UTC 2008-12-04)
Аудио
Идентификатор : 1
Формат : MPEG Audio
Версия формата : Version 1
Профиль формата : Layer 3
Идентификатор кодека : 55
Идентификатор кодека/Подсказка : MP3
Продолжительность : 43 м.
Вид битрейта : Постоянный
Битрейт : 128 Кбит/сек
Каналы : 2 канала
Частота : 48,0 КГц
Метод сжатия : С потерями
Размер потока : 39,5 Мбайт (9%)
Выравнивание : Соединение по промежуткам
Продолжительность промежутка : 42 мс. (1,00 видеокадр)
Время предзагрузки промежутка : 504 мс.
Библиотека кодирования : LAME3.98r
Настройки программы : -m s -V 4 -q 2 -lowpass 17 -b 128
Download / Скачать

Хотите скачать бесплатно? Зарегистрируйтесь на сайте (ссылка на регистрацию). Pirat.ca - самый быстрый торрент трекер в рунете!

Как скачивать  ·   Что такое торрент  ·   Рейтинг и ограничения

Показать сообщения:    
Ответить на тему

Текущее время: Сегодня 22:06

Часовой пояс: GMT + 4



Вы не можете начинать темы
Вы не можете отвечать на сообщения
Вы не можете редактировать свои сообщения
Вы не можете удалять свои сообщения
Вы не можете голосовать в опросах
Вы не можете прикреплять файлы к сообщениям
Вы не можете скачивать файлы

▼ Вниз