ML
     
  Уважаемый Гость!
Вы можете поддержать проект и зарегистрироваться у наших партнеров - онлайн-стратегия MyLands. При регистрации в игре Вы получите код, который сможете активировать после регистрации на pirat.ca и получить 1000 дублонов.

Ваш код:
4fbd9898b6f10799a3e8edf60f31febd2bc15453
 
     

Река / The River / Сезон: 1 / Серии: 8 из 8 (Хауме Кольет-Серра / Jaume Collet-Serra, ...) [2012 г., ужасы, триллер, WEB-DLRip] MVO ("Кравец" (LostFilm))

Ответить на тему
 
Автор
Сообщение

Пост 29-Авг-2016 04:04

[Q] 

somik

Легенда

-Река / The River-- Производство: США, ABC Studios, ...
Жанр: ужасы, триллер
Год выпуска: 2012 г.
Продолжительность: 00:43:00
Мировая премьера: 7 февраля 2012
Российская премьера: 23 октября 2013
Перевод: Профессиональный (многоголосый, закадровый) ["Кравец" (LostFilm)]
Режиссер: Хауме Кольет-Серра / Jaume Collet-Serra, ...-В ролях: Брюс Гринвуд, Джо Андерсон, Лесли Хоуп, Элуиз Мамфорд, Пол Блекторн, Томас Кречманн, Дэниэл Зацапа, Шон Паркес, Паулина Гайтан, Джеф Галфер-Описание: Сериал рассказывает о поисках Эммета Коула, известного телеведущего, бесследно пропавшего где-то в районе Амазонки. Доктор Коул — путешественник, ученый и исследователь. Его жена Тесс и сын Линкольн спустя шесть месяцев после исчезновения главы семейства отправляются в поисковую экспедицию, в сопровождении команды документалистов. Но по дороге они сталкиваются со странными и пугающими явлениями, не поддающимися логическому объяснению.-
Качество видео: WEB-DLRip
Контейнер: AVI
Видео кодек: XviD
Аудио кодек: MP3
Видео: 720x400 (1.80:1), 23.976 fps, XviD MPEG-4 ~1914 kbps avg, 0.28 bit/pixel
Аудио: 48 kHz, MPEG Layer 3, 2 ch, ~128.00 kbps avg
Cубтитры: отсутствуют
Волшебство есть?!
Магия, все самые жуткие истории амазонки, так и хочется окунуться в это с головой. Сказать честно еще никогда в жизни не видела такого сериала или хотя бы фильма, которого так сказать «не в сказке сказать, не пером описать»…
Я являюсь большой фанаткой таких мистических и даже фантастических фильмов, но сериал Река еще и до жути реалистичен. Вы не пожалеете потраченного времени, но прошу вас не ищите сразу минусы, лучше позвольте себе окунуться в этот сериал с головой. И хотя продолжения не будет, эти восемь серий стоит посмотреть.
Поначалу кажется, что они собрали все жуткие истории Амазонки и сняли их вместе, да и наши герои не настолько доверчивы. Если в первой серии все герои кажутся полностью описаны и ты уже не найдешь в каждой личности чего-то нового, то после второй серии понимаешь, что за каждым героем стоит своя история и свои скелеты в шкафу. Этот сериал не сказка на ночь в которой есть кристально чисты герой, в нем каждый герой имеет за собой «грешок» и все они понимают сами что не чисты, и по многим причинам даже не достойны этого путешествия, ну что ж будем думать что именно поэтому конец так неоднозначен.
Знаете есть такое высказывание «со своим уставом в чужой храм не лезь», вот и тут, попав на неизведанные территории Амазонки герои не понимают что лучше им прислушаться к здешним легендам, но к сожалению они это понимают только при столкновении с одной из таких легенд. Девушка дочь механика сперва считается чокнутой, но после столкновении лицом к лицу с одной из ее «выдумок," она становиться чуть ли не спецом, хотя и она допускает ошибку. Все мы не без греха.
Я преклоняюсь перед режиссером Жауме Серра, снять подобного рода сериал не каждый осмелится, это конечно шедевр.
Общее
Полное имя : F:\!СЕРИАЛЫ\Река\The.River.S01.LostFilm.[pirat.ca]\The.River.S01E01.rus.LostFilm.TV.avi
Формат : AVI
Формат/Информация : Audio Video Interleave
Размер файла : 645 Мбайт
Продолжительность : 43 м.
Общий поток : 2056 Кбит/сек
Название фильма : The.River.S01E01.rus.LostFilm.TV
Программа кодирования : Nandub v1.0rc2
Видео
Идентификатор : 0
Формат : MPEG-4 Visual
Профиль формата : [email protected]
Параметр BVOP формата : Нет
Параметр QPel формата : Нет
Параметр GMC формата : Без точки перехода
Параметр матрицы формата : Default (H.263)
Идентификатор кодека : XVID
Идентификатор кодека/Подсказка : XviD
Продолжительность : 43 м.
Битрейт : 1915 Кбит/сек
Ширина : 720 пикселей
Высота : 400 пикселей
Соотношение сторон : 16:9
Частота кадров : 23,976 (24000/1001) кадра/сек
Цветовое пространство : YUV
Субдискретизация насыщенности : 4:2:0
Битовая глубина : 8 бит
Тип развёртки : Прогрессивная
Метод сжатия : С потерями
Бит/(Пиксели*Кадры) : 0.277
Размер потока : 601 Мбайт (93%)
Библиотека кодирования : XviD 1.2.1 (UTC 2008-12-04)
Аудио
Идентификатор : 1
Формат : MPEG Audio
Версия формата : Version 1
Профиль формата : Layer 3
Режим : Joint stereo
Расширение режима : MS Stereo
Идентификатор кодека : 55
Идентификатор кодека/Подсказка : MP3
Продолжительность : 43 м.
Вид битрейта : Постоянный
Битрейт : 128 Кбит/сек
Каналы : 2 канала
Частота : 48,0 КГц
Метод сжатия : С потерями
Размер потока : 40,2 Мбайт (6%)
Выравнивание : Соединение по промежуткам
Продолжительность промежутка : 24 мс. (0,58 видеокадр)
Время предзагрузки промежутка : 480 мс.
Download / Скачать

Хотите скачать бесплатно? Зарегистрируйтесь на сайте (ссылка на регистрацию). Pirat.ca - самый быстрый торрент трекер в рунете!

Как скачивать  ·   Что такое торрент  ·   Рейтинг и ограничения

Показать сообщения:    
Ответить на тему

Текущее время: Сегодня 19:59

Часовой пояс: GMT + 4



Вы не можете начинать темы
Вы не можете отвечать на сообщения
Вы не можете редактировать свои сообщения
Вы не можете удалять свои сообщения
Вы не можете голосовать в опросах
Вы не можете прикреплять файлы к сообщениям
Вы не можете скачивать файлы

▼ Вниз