ML
     
  Уважаемый Гость!
Вы можете поддержать проект и зарегистрироваться у наших партнеров - онлайн-стратегия MyLands. При регистрации в игре Вы получите код, который сможете активировать после регистрации на pirat.ca и получить 1000 дублонов.

Ваш код:
fe4e93b754a7c2b306fcfc8bc32532ea1cf59d3b
 
     

Каприка / Caprica / Сезон: 1 / Серии: 18 из 18 (Майкл Нанкин / Michael Nankin) [2009 г., фантастика, боевик, WEB-DLRip] MVO (Студия «LostFilm»)

Ответить на тему
 
Автор
Сообщение

Пост 29-Авг-2016 04:23

[Q] 

somik

Легенда

-Каприка / Caprica-- Производство: США, Канада, SyFy
Жанр: фантастика, боевик
Год выпуска: 2009 г.
Продолжительность: 00:44:00
Мировая премьера: 21 апреля 2009
Российская премьера: 9 апреля 2010
Перевод: Профессиональный (многоголосый, закадровый) [Студия «LostFilm»]
Режиссер: Майкл Нанкин / Michael Nankin-В ролях: Эрик Штольц, Эсай Моралез, Пола Малькольмсон, Алессандра Торесани, Магда Апанович, Эйван Джоджия, Полли Уокер и др-Описание: 12 колоний Кобола. Планета Каприка. 58 лет до разрушения. Религиозный фанатизм снова свёл судьбы семей Адама и Грейстоун. Обобщённые горем потери своих дочерей, видный правозащитник Джозеф Адама и богатый технолог Дэниеэл Грейстоун, понимают, что едва находят в себе силы жить. В отчаянии, Дэниэл отдаёт все силы на благо его развитой промышленной компании для достижении одной цели: вернуть свою дочку, а заодно и дочь Джозефа, к жизни. После экспериментов, давших потрясающие прорывы в робототехнике, и сомнительного поворота в поведении искусственного интеллекта, Джозеф становится неистовым противником пути, избранного Дэниэлом.-
Качество видео: WEB-DLRip
Контейнер: AVI
Видео кодек: XviD
Аудио кодек: MP3
Видео: 624x352 (1.77:1), 23.976 fps, XviD MPEG-4 ~912 kbps avg, 0.17 bit/pixel
Аудио: 48 kHz, MPEG Layer 3, 2 ch, ~128.00 kbps avg
Cубтитры: отсутствуют
Ты же не она, ты не Зоуи!Но я чувствую себя ею…
По окончанию просмотра сериала «Звездный крейсер галактика», мне стала очень интересна вселенная данного сериала и я ввел его название в поисковике и случайно наткнулся на сериал «Каприка».
После просмотра первой (пилотной) серии, я не думал что этот сериал мне понравится, но посмотрев еще несколько серий, мне было все труднее и труднее оторваться от просмотра.
Начну с сюжета который своей необычной атмосферой затягивает зрителя после просмотра нескольких серий. Качественно переданы все элементы жизни Каприканцев: повседневное пребывание в «Ви» мире, конфликты на религиозной почве, и простое демонстрирование повседневной жизни, которая кстати говоря очень похожа на нашу.
Хотелось бы отметить игру актеров, которая в данном сериале довольно качественная и интересная. Уже после просмотра нескольких серий, начинаешь привязываться к персонажам сериала переживать и сочувствовать им.
Хотелось бы отметить моих любимых персонажей
Зоуи Грейстоун — Подросток-гений, создавший свою копию (аватара) в «Ви» мире, что для ее возраста казалось бы не возможным, но на этом она не остановилась, она хотела добиться большего, но не успела…
Дениел Грейстоун — гениальный изобретатель и владелец корпорации «Грейстоун Индастрис». С ребенком и с женою но не имея средств их обеспечить, Дениел подписал контракт, после которого он стал одним из самых богатых людей на двенадцати колониях.
Джозеф Адама — адвокат имеющий связи с преступным миром, настоящее имя которого Ёсиф и родился он вовсе на на Каприке, а на Тауроне — одной из планет двенадцати колоний. На Каприку прибыл в раннем возрасте и самого детства старался казаться коренным Каприканцем, что у него хорошо получалось.
В общем мне понравился этот сериал, советую смотреть всем кто не смотрел. Моя оценка к данному сериалу
10 из 10
Жаль только создатели ограничились одним сезоном.
Общее
Полное имя : D:\D\Каприка\Caprica.LostFilm.TV.[pirat.ca]\Caprica.Pilot.rus.LostFilm.TV.avi
Формат : AVI
Формат/Информация : Audio Video Interleave
Размер файла : 696 Мбайт
Продолжительность : 1 ч. 32 м.
Общий поток : 1054 Кбит/сек
Название фильма : Caprica.Pilot.rus.LostFilm.TV
Программа кодирования : Nandub v1.0rc2
Видео
Идентификатор : 0
Формат : MPEG-4 Visual
Профиль формата : Advanced [email protected]
Параметр BVOP формата : 2
Параметр QPel формата : Нет
Параметр GMC формата : Без точки перехода
Параметр матрицы формата : Default (H.263)
Режим смешивания : Сжатый битовый поток
Идентификатор кодека : XVID
Идентификатор кодека/Подсказка : XviD
Продолжительность : 1 ч. 32 м.
Битрейт : 913 Кбит/сек
Ширина : 624 пикселя
Высота : 352 пикселя
Соотношение сторон : 16:9
Частота кадров : 23,976 (24000/1001) кадра/сек
Цветовое пространство : YUV
Субдискретизация насыщенности : 4:2:0
Битовая глубина : 8 бит
Тип развёртки : Прогрессивная
Метод сжатия : С потерями
Бит/(Пиксели*Кадры) : 0.173
Размер потока : 603 Мбайт (87%)
Библиотека кодирования : XviD 1.2.1 (UTC 2008-12-04)
Аудио
Идентификатор : 1
Формат : MPEG Audio
Версия формата : Version 1
Профиль формата : Layer 3
Режим : Joint stereo
Расширение режима : MS Stereo
Идентификатор кодека : 55
Идентификатор кодека/Подсказка : MP3
Продолжительность : 1 ч. 32 м.
Вид битрейта : Постоянный
Битрейт : 128 Кбит/сек
Каналы : 2 канала
Частота : 48,0 КГц
Метод сжатия : С потерями
Размер потока : 84,5 Мбайт (12%)
Выравнивание : Соединение по промежуткам
Продолжительность промежутка : 24 мс. (0,58 видеокадр)
Время предзагрузки промежутка : 480 мс.
Download / Скачать

Хотите скачать бесплатно? Зарегистрируйтесь на сайте (ссылка на регистрацию). Pirat.ca - самый быстрый торрент трекер в рунете!

Как скачивать  ·   Что такое торрент  ·   Рейтинг и ограничения

Показать сообщения:    
Ответить на тему

Текущее время: Сегодня 14:30

Часовой пояс: GMT + 4



Вы не можете начинать темы
Вы не можете отвечать на сообщения
Вы не можете редактировать свои сообщения
Вы не можете удалять свои сообщения
Вы не можете голосовать в опросах
Вы не можете прикреплять файлы к сообщениям
Вы не можете скачивать файлы

▼ Вниз