ML
     
  Уважаемый Гость!
Вы можете поддержать проект и зарегистрироваться у наших партнеров - онлайн-стратегия MyLands. При регистрации в игре Вы получите код, который сможете активировать после регистрации на pirat.ca и получить 1000 дублонов.

Ваш код:
73640f24f8a0f579e128ea7346fd2db2b1009143
 
     

Шерлок / Sherlock / Сезон: 3 / Серии: 3 из 3 (Пол МакГиган / Paul McGuigan, ...) [2013 г., Триллер, детектив, BDRip] Dub (Первый канал)

Ответить на тему
 
Автор
Сообщение

Пост 29-Авг-2016 04:59

[Q] 

somik

Легенда

-Шерлок / Sherlock-- Производство: Великобритания, США, BBC Wales, ...
Жанр: Триллер, детектив
Год выпуска: 2013 г.
Продолжительность: 01:26:00
Мировая премьера: 24 декабря 2013
Российская премьера: 18 сентября 2010
Дата выхода DVD: 1 февраля 2011, «Флагман-Трейд»
Перевод: Профессиональный (полное дублирование) [Первый канал]
Режиссер: Пол МакГиган / Paul McGuigan, ...-В ролях: Бенедикт Камбербэтч, Мартин Фриман, Уна Стаббс, Руперт Грейвз, Лу Брили, Марк Гейтисс, Эндрю Скотт, Джонатан Арис, Аманда Аббингтон, Винетт Робинсон-Описание: События разворачиваются в наши дни. Он прошел Афганистан, остался инвалидом. По возвращении в родные края встречается с загадочным, но своеобразным гениальным человеком. Тот в поиске соседа по квартире. Лондон, 2010 год. Происходят необъяснимые убийства. Скотланд-Ярд без понятия, за что хвататься. Существует лишь один человек, который в силах разрешить проблемы и найти ответы на сложные вопросы.-
Качество видео: BDRip
Контейнер: AVI
Видео кодек: XviD
Аудио кодек: AC3
Видео: 704x400 (1.76:1), 25 fps, XviD build 67 ~2206 kbps avg, 0.31 bit/pixel
Аудио: 48 kHz, AC3 Dolby Digital, 2/0 (L,R) ch, ~192 kbps
Cубтитры: отсутствуют
Сериал снят по мотивам произведений Артура Конана Дойля о Шерлоке Холмсе (изданных с 1887 по 1927 годы), однако действие происходит в наши дни.
Банк «Shad Sanders» из серии «Слепой банкир» снимали в небоскрёбе «Debevoise & Plimpton», расположенном по адресу Old Broad Street, City of London, Greater London EC2N 1HQ.
Квартира Холмса и Ватсона по адресу Бейкер-стрит, 221 Б, снималась на Норт-Гоуэр-стрит, 187 (187 North Gower Street) в лондонском районе Блумсбери. Для пилотного эпизода некоторые сцены снимались на Бейкер-стрит. Представитель Би-би-си объяснил отказ от съёмок на Бейкер-стрит тем, на этой улице очень плотное автомобильное движение, а также тем, что там очень много предметов и вывесок с надписями «Шерлок Холмс», в частности на доме 221 Б, которые бы пришлось убирать.
Как и в произведениях Артура Конана Дойла, в сериале термин «дедукция» использован неверно. Дедукция — это частный случай умозаключения, переход от общего к частному. Все свои умозаключения Шерлок Холмс делает на индуктивных рассуждениях. Индукция — это метод рассуждения от частного к общему.
Бенедикт Камбербэтч был единственным, кто прослушивался на роль Шерлока. Стивен Моффат и Марк Гатисс пригласили его на пробы после просмотра фильма «Искупление» (2007) с его участием. На пробах стало очевидно, что образ настолько ему подходит, что рассылать сценарий кому-либо еще не имеет смысла.
На роль Доктора Ватсона пробовался Мэтт Смит — до того, как его утвердили на главную роль в сериале «Доктор Кто» (2005).
Жорж, 2015 год
Победитель (1):
Лучший зарубежный сериал (драма)
Премия Гильдии актеров, 2015 год
Номинации (1):
Лучшая мужская роль в телефильме или минисериале (Бенедикт Камбербэтч)
Эмми, 2014 год
Победитель (2):
Лучшая мужская роль в мини-сериале или телефильме ( Бенедикт Камбербэтч )
Лучшая мужская роль второго плана в мини-сериале или телефильме ( Мартин Фриман )
Золотой глобус, 2013 год
Номинации (1):
Лучший актёр мини-сериала или фильма на ТВ (Бенедикт Камбербэтч)
Эмми, 2012 год
Номинации (3):
Лучший мини-сериал или телевизионный фильм
Лучшая мужская роль в мини-сериале или телефильме (Бенедикт Камбербэтч)
Лучшая мужская роль второго плана в мини-сериале или телефильме (Мартин Фриман)
Сатурн, 2011 год
Номинации (1):
Лучшая телепостановка
Современный бэйкер стрит
Б. Камбербэтч, как главный герой, сильно отталкивал по началу. Но чем больше я втягивалась в сериал, тем больше понимала, что именно такой и нужен Шерлок. Одним словом, я полюбила его, не так как Хауса конечно, но все же. Все продумано до мелочей, каждый эпизод каждой серии и более того, многое связано между собой, что постоянно удивляет и даже заставляет думать. Как жить великим умам в нашем обычном обществе? Тем, кто постоянно развивается и видит больше чем все мы (включая полицейских, следователей и т. д.). Можно направить свой дар такой как на созидание, так и на разрушения. Мориарти ведь тоже хорош. Почему-то он мне понравился сразу. Может сказалась короткометражка «Sea Wall». Найти того, с кем можно потягаться умом. Но не в шахматах, а в глобальных масштабах. Будто зло и добро. Сказки все в детстве читали, знаем, что побеждает. Но так приятно видеть, как двигаются их мысли и как происходит противостояние двух великих умов.
Общее
Полное имя : C:\герои 7\Шерлок\Sherlok.S03.2012.RUS.BDRip.[pirat.ca]\Sherlok.S03.E01.2014.RUS.BDRip.XviD.AC3.-HQ-ViDEO.avi
Формат : AVI
Формат/Информация : Audio Video Interleave
Размер файла : 1,45 Гбайт
Продолжительность : 1 ч. 26 м.
Общий поток : 2409 Кбит/сек
Название фильма : Sherlok.S03.E01.2014.RUS.BDRip.XviD.AC3.-HQ-ViDEO
Программа кодирования : VirtualDubMod 1.5.10.2 (build 2542/release)
Видео
Идентификатор : 0
Формат : MPEG-4 Visual
Профиль формата : Advanced [email protected]
Параметр BVOP формата : 1
Параметр QPel формата : Нет
Параметр GMC формата : Без точки перехода
Параметр матрицы формата : Выборочная
Идентификатор кодека : XVID
Идентификатор кодека/Подсказка : XviD
Продолжительность : 1 ч. 26 м.
Битрейт : 2207 Кбит/сек
Ширина : 704 пикселя
Высота : 400 пикселей
Соотношение сторон : 16:9
Частота кадров : 25,000 кадров/сек
Цветовое пространство : YUV
Субдискретизация насыщенности : 4:2:0
Битовая глубина : 8 бит
Тип развёртки : Прогрессивная
Метод сжатия : С потерями
Бит/(Пиксели*Кадры) : 0.313
Размер потока : 1,33 Гбайт (92%)
Библиотека кодирования : XviD 67
Аудио
Идентификатор : 1
Формат : AC-3
Формат/Информация : Audio Coding 3
Расширение режима : CM (complete main)
Параметр Endianness формата : Big
Идентификатор кодека : 2000
Продолжительность : 1 ч. 26 м.
Вид битрейта : Постоянный
Битрейт : 192 Кбит/сек
Каналы : 2 канала
Расположение каналов : Front: L R
Частота : 48,0 КГц
Частота кадров : 31,250 кадров/сек (1536 spf)
Метод сжатия : С потерями
Размер потока : 119 Мбайт (8%)
Выравнивание : Разделение по промежуткам
Продолжительность промежутка : 40 мс. (1,00 видеокадр)
Время предзагрузки промежутка : 500 мс.
Download / Скачать

Хотите скачать бесплатно? Зарегистрируйтесь на сайте (ссылка на регистрацию). Pirat.ca - самый быстрый торрент трекер в рунете!

Как скачивать  ·   Что такое торрент  ·   Рейтинг и ограничения

Показать сообщения:    
Ответить на тему

Текущее время: Сегодня 22:35

Часовой пояс: GMT + 4



Вы не можете начинать темы
Вы не можете отвечать на сообщения
Вы не можете редактировать свои сообщения
Вы не можете удалять свои сообщения
Вы не можете голосовать в опросах
Вы не можете прикреплять файлы к сообщениям
Вы не можете скачивать файлы

▼ Вниз