ML
     
  Уважаемый Гость!
Вы можете поддержать проект и зарегистрироваться у наших партнеров - онлайн-стратегия MyLands. При регистрации в игре Вы получите код, который сможете активировать после регистрации на pirat.ca и получить 1000 дублонов.

Ваш код:
8dcb839cf1b47e56d6dc42d17f26b3e4822e9aee
 
     

Vизитеры / V / Сезон: 1 / Серии: 12 из 12 (Ив Симоно / Yves Simoneau, ...) [2009 г., фантастика, WEB-DLRip] MVO (LostFilm)

Ответить на тему
 
Автор
Сообщение

Пост 29-Авг-2016 16:13

[Q] 

somik

Легенда

-Vизитеры / V-- Производство: США, HDFilms, Scott Peters Company, The, Visitors Films, Warner Bros. Television
Жанр: фантастика
Год выпуска: 2009 г.
Продолжительность: 00:43:00
Мировая премьера: 3 ноября 2009
Перевод: Профессиональный (многоголосый, закадровый) [LostFilm]
Режиссер: Ив Симоно / Yves Simoneau, ...-В ролях: Морена Баккарин, Кристал Балинт, Моррис Честнат, Джоэль Гретш, Марси Т. Хаус, Логан Хаффман, Джереми Джонс, Крэйг Марч, Элизабет Митчелл, Алан Тьюдик-Описание: Сегодня весь мир проснулся и увидел, что над каждым городом парят космические корабли. Прибывшие утверждают что пришли с миром, и предлагают подарки в виде медицинских открытий и технологических усовершенствований. Они обещают, что не навредят. Они лгут. Большинство человечества верит, что чужие прибыли как раз тогда, когда мы в них нуждались. Люди с радостью принимают их помощь.
Но во время расследования террористической ячейки агент госбезопасности Эрика Эванс обнаруживает нечто вовсе не безобидное. Когда ее напарник пытается ее убить, Эрика обнаруживает, что пришельцы планируют внедриться в правительства и крупные корпорации, чтобы в будущем захватить все человечество. Но убедить в этом остальных практически невозможно, ведь в руках пришельцев два мощных козыря. Во-первых, они завоевали веру и любовь людей, благодаря своим подаркам. Во-вторых, они взяли под контроль почти всех подростков.
Тысячи подростков, включая сына Эрики, были назначены «послами мира», но на самом деле они шпионят для пришельцев, не подозревая об этом. Эрика вынуждена вступить в движение сопротивления, где она знакомится с Райаном, пришельцем, который хочет спасти человечество. Эрике придется находить равновесие между сопротивлением, работой, и заботой о своем сыне, который принял сторону врагов.-
Качество видео: WEB-DLRip
Контейнер: AVI
Видео кодек: XviD
Аудио кодек: MP3
Видео: 624x352 (1.77:1), 23.976 fps, XviD build 50 ~1120 kbps avg, 0.21 bit/pixel
Аудио: 48 kHz, MPEG Layer 3, 2 ch, ~128.00 kbps avg
Cубтитры: отсутствуют
Пилотная серия была показана в Сан-Диего на фестивале Comic-Con 2009.
Фамке Янссен отказалась от роли Анны.
Сериал является ремейком мини-сериала 1983 года.
13 мая 2011 года канал ABC принял решение о закрытии сериала, оборвавшегося на ключевом кульминационном эпизоде.
Джейн Бэдлер, сыгравшая в оригинальном сериале 1983 Диану, вернулась в современной адаптации в этой же роли.
Сатурн, 2011 год
Номинации (3):
Лучшая телеактриса (Элизабет Митчелл)
Лучшая телеактриса второго плана (Морена Баккарин)
Лучший телесериал, созданный для телетрансляции
Сатурн, 2010 год
Номинации (2):
Лучшая телеактриса второго плана (Морена Баккарин)
Лучшая телепостановка
Они среди нас
Как и один из предыдущих ораторов аплодирую стоя создателям сериала. Действительно это первый сериал посвященный изотерическим культам. Если разложить весь сериал по полочкам становиться понятно, что сценаристы не плохо изучили предложенный материал. Подан этот материал очень вкусно. Единственное, что сериал, как эффектная куртизанка, обнажается перед тем кто читал изотерическую литературы. Потому что там это уже написано. Правда без спец. эффектов, конечно. В принципе, для человека, что потратил 2 года на изучение данной темы, будет интересно сравнить насколько моё мнение расходиться с мнением сценаристов. Ну а концовка первого сезона шикарна. Жду с нетерпением 2-го.
Ну и разумеется, личная оценка:
10 из 10
Общее
Полное имя : D:\D\Визитёры\Visitors\V 1 - LostFilm.TV.[pirat.ca]\V.s01e01.rus.PROPER.LostFilm.TV.avi
Формат : AVI
Формат/Информация : Audio Video Interleave
Размер файла : 426 Мбайт
Продолжительность : 47 м.
Общий поток : 1262 Кбит/сек
Название фильма : V.s01e01.rus.PROPER.LostFilm.TV
Программа кодирования : Nandub v1.0rc2
Видео
Идентификатор : 0
Формат : MPEG-4 Visual
Профиль формата : Advanced [email protected]
Параметр BVOP формата : 1
Параметр QPel формата : Нет
Параметр GMC формата : Без точки перехода
Параметр матрицы формата : Выборочная
Идентификатор кодека : XVID
Идентификатор кодека/Подсказка : XviD
Продолжительность : 47 м.
Битрейт : 1122 Кбит/сек
Ширина : 624 пикселя
Высота : 352 пикселя
Соотношение сторон : 16:9
Частота кадров : 23,976 (23976/1000) кадра/сек
Цветовое пространство : YUV
Субдискретизация насыщенности : 4:2:0
Битовая глубина : 8 бит
Тип развёртки : Прогрессивная
Метод сжатия : С потерями
Бит/(Пиксели*Кадры) : 0.213
Размер потока : 378 Мбайт (89%)
Библиотека кодирования : XviD 1.2.1 (UTC 2008-12-04)
Аудио
Идентификатор : 1
Формат : MPEG Audio
Версия формата : Version 1
Профиль формата : Layer 3
Режим : Joint stereo
Расширение режима : MS Stereo
Идентификатор кодека : 55
Идентификатор кодека/Подсказка : MP3
Продолжительность : 47 м.
Вид битрейта : Постоянный
Битрейт : 128 Кбит/сек
Каналы : 2 канала
Частота : 48,0 КГц
Метод сжатия : С потерями
Размер потока : 43,2 Мбайт (10%)
Выравнивание : Соединение по промежуткам
Продолжительность промежутка : 24 мс. (0,58 видеокадр)
Время предзагрузки промежутка : 480 мс.
Download / Скачать

Хотите скачать бесплатно? Зарегистрируйтесь на сайте (ссылка на регистрацию). Pirat.ca - самый быстрый торрент трекер в рунете!

Как скачивать  ·   Что такое торрент  ·   Рейтинг и ограничения

AugustBeniowski

Лоцман

Пост 29-Авг-2016 23:13 (спустя 6 часов)

[Q] 

Сомику респект,
раздаёт прекрасные фантастические сериалы.
Хотя любой приличный ценитель хорошей фантастики 100% их уже видел, но всё рано спасибо.
[Профиль]  [ЛС] 
Показать сообщения:    
Ответить на тему

Текущее время: Сегодня 04:13

Часовой пояс: GMT + 4



Вы не можете начинать темы
Вы не можете отвечать на сообщения
Вы не можете редактировать свои сообщения
Вы не можете удалять свои сообщения
Вы не можете голосовать в опросах
Вы не можете прикреплять файлы к сообщениям
Вы не можете скачивать файлы

▼ Вниз