ML
     
  Уважаемый Гость!
Вы можете поддержать проект и зарегистрироваться у наших партнеров - онлайн-стратегия MyLands. При регистрации в игре Вы получите код, который сможете активировать после регистрации на pirat.ca и получить 1000 дублонов.

Ваш код:
5af7de75d3db09b6a37bc8bab71b0e87ccde73d6
 
     

День Триффидов / The Day of the Triffids / Сезон: 1 / Серии: 2 из 2 (Nick Copus / Ник Копус) [2009 г., фантастика, BDRip] MVO + MVO (Кубик в кубе, 1001 cinema)

Ответить на тему
 
Автор
Сообщение

Пост 29-Авг-2016 16:53

[Q] 

somik

Легенда

-День Триффидов / The Day of the Triffids-- Производство: США, Power
Жанр: фантастика
Год выпуска: 2009 г.
Продолжительность: 03:05:47
Мировая премьера: 28 декабря 2009
Дата выхода DVD: 29 июля 2010, «CP-Digital»
Перевод: Профессиональный (многоголосый, закадровый) [Кубик в кубе]
Перевод 2: Профессиональный (многоголосый, закадровый) [1001 cinema]
Режиссер: Nick Copus / Ник Копус-В ролях: Джейсон Пристли / Jason Priestley, Эвен Бремнер / Ewen Bremner, Шейн Тэйлор / Shane Taylor, Виллиам Илклей / William Ilkley, Джоели Ричардсон / Joely Richardson, Дугрэй Скотт / Dougray Scott-Описание: После всеобщего наблюдения необычного астрономического явления — «звездопада» большая часть людей на Земле ослепла (за исключением тех, кто по какой-либо причине не смотрел на небо во время этого явления).-
Качество видео: BDRip
Контейнер: AVI
Видео кодек: XviD
Аудио кодек: AC3
Видео: 704x400 (1.76:1), 24.000 fps, XviD MPEG-4 ~1848 kbps avg, 0.27 bit/pixel
Аудио: 48 kHz, AC3 Dolby Digital, 2/0 (L,R) ch, ~192 kbps
Аудио #2: 48 kHz, AC3 Dolby Digital, 2/0 (L,R) ch, ~192 kbps
Cубтитры: отсутствуют
Война миров — 2. Триффиды среди нас.
Весьма неплохой сериал. Нельзя сказать, что сюжет очень близок к роману Уиндема, все же отсебятины здесь хватает, но в целом фильм полностью выдержан в духе оригинала.
Главное, что хочется отметить — это теперь бесспорный факт принадлежности романа к мировой класике фантастики. Во-первых, не каждое произведение может удостоиться трехкратной экранизации, а только входящее в число лучших. Во-вторых, сюжет, как мне кажется, сегодня особенно актуален, учитывая торжество генной инженерии. Кстати, вероятно, поэтому создатели данного сериала сделали упор именно на вмешательстве человека в природу растений. Ничего не сказано о триффидах, кроме того, что они — результат намеренной генетической мутации (в романе лишь гипотетически проскальзывает версия о биологических экспериментах).
Но триффиды — всего лишь фон. Необходимое условие для развития апокалипсиса, когда на смену человечеству могут прийти другие существа, обладающие разумом. Мы не видим их вокруг себя сегодня, но кто знает, что будет завтра. Наверняка именно этот вопрос ставил перед собой Уиндем, когда писал свой роман шестьдесят лет назад. И в этом он был продолжателем Уэллса, величайшего фантаста человечества, который писал более про людей, а все его гениальные фантастические сюжеты — всего лишь повод, чтобы поставить человека в невыносимые условия, когда обнажается все его естество.
Из претензий к сериалу можно выделить те сюжетные провалы, когда многое остается за кадром, а где-то даже возникают обвинения в наивности авторов сценария. По части спецеффектов основные претензии можно свести к гротескности самих триффидов и подачи их в несколько утрированном виде. Возможно, это видение создателей фильма.
В заключение хочется сказать, что хорошие экранизации пробуждают интерес к повторному прочтению источника или открытию его для себя впервые, если ранее зритель не читал этого произведения. И данный фильм эту задачу выполняет.
9 из 10
Общее
Полное имя : J:\День Триффидов\Den Triffidov.S01.E01-E02.DUALRUS.BDRip.[pirat.ca]\Den Triffidov.S01.E01.DUALRUS.BDRip.[pirat.ca].avi
Формат : AVI
Формат/Информация : Audio Video Interleave
Размер файла : 1,46 Гбайт
Продолжительность : 1 ч. 32 м.
Общий поток : 2248 Кбит/сек
Программа кодирования : VirtualDubMod 1.5.10.2 (build 2542/release)
Библиотека кодирования : VirtualDubMod build 2542/release
Видео
Идентификатор : 0
Формат : MPEG-4 Visual
Профиль формата : Advanced [email protected]
Параметр BVOP формата : 2
Параметр QPel формата : Нет
Параметр GMC формата : Без точки перехода
Параметр матрицы формата : Выборочная
Режим смешивания : Сжатый битовый поток
Идентификатор кодека : XVID
Идентификатор кодека/Подсказка : XviD
Продолжительность : 1 ч. 32 м.
Битрейт : 1850 Кбит/сек
Ширина : 704 пикселя
Высота : 400 пикселей
Соотношение сторон : 16:9
Частота кадров : 24,000 кадра/сек
Цветовое пространство : YUV
Субдискретизация насыщенности : 4:2:0
Битовая глубина : 8 бит
Тип развёртки : Прогрессивная
Метод сжатия : С потерями
Бит/(Пиксели*Кадры) : 0.274
Размер потока : 1,20 Гбайт (82%)
Библиотека кодирования : XviD 1.2.1 (UTC 2008-12-04)
Аудио #1
Идентификатор : 1
Формат : AC-3
Формат/Информация : Audio Coding 3
Расширение режима : CM (complete main)
Параметр Endianness формата : Big
Идентификатор кодека : 2000
Продолжительность : 1 ч. 32 м.
Вид битрейта : Постоянный
Битрейт : 192 Кбит/сек
Каналы : 2 канала
Расположение каналов : Front: L R
Частота : 48,0 КГц
Частота кадров : 31,250 кадров/сек (1536 spf)
Метод сжатия : С потерями
Размер потока : 128 Мбайт (9%)
Выравнивание : Разделение по промежуткам
Продолжительность промежутка : 42 мс. (1,00 видеокадр)
Время предзагрузки промежутка : 500 мс.
Аудио #2
Идентификатор : 2
Формат : AC-3
Формат/Информация : Audio Coding 3
Расширение режима : CM (complete main)
Параметр Endianness формата : Big
Идентификатор кодека : 2000
Продолжительность : 1 ч. 32 м.
Вид битрейта : Постоянный
Битрейт : 192 Кбит/сек
Каналы : 2 канала
Расположение каналов : Front: L R
Частота : 48,0 КГц
Частота кадров : 31,250 кадров/сек (1536 spf)
Метод сжатия : С потерями
Размер потока : 128 Мбайт (9%)
Выравнивание : Разделение по промежуткам
Продолжительность промежутка : 42 мс. (1,00 видеокадр)
Время предзагрузки промежутка : 500 мс.
Download / Скачать

Хотите скачать бесплатно? Зарегистрируйтесь на сайте (ссылка на регистрацию). Pirat.ca - самый быстрый торрент трекер в рунете!

Как скачивать  ·   Что такое торрент  ·   Рейтинг и ограничения

Показать сообщения:    
Ответить на тему

Текущее время: Сегодня 14:14

Часовой пояс: GMT + 4



Вы не можете начинать темы
Вы не можете отвечать на сообщения
Вы не можете редактировать свои сообщения
Вы не можете удалять свои сообщения
Вы не можете голосовать в опросах
Вы не можете прикреплять файлы к сообщениям
Вы не можете скачивать файлы

▼ Вниз