ML
     
  Уважаемый Гость!
Вы можете поддержать проект и зарегистрироваться у наших партнеров - онлайн-стратегия MyLands. При регистрации в игре Вы получите код, который сможете активировать после регистрации на pirat.ca и получить 1000 дублонов.

Ваш код:
ea554e7ed3eacceeae87a8b30a9de3f086c18a84
 
     

Чак / Chuck / Сезон: 1 / Серии: 13 из 13 (Крис Федак / Chris Fedak, ...) [2007 г., Комедийный боевик, HDRip] MVO (Kravec (MTV))

Ответить на тему
 
Автор
Сообщение

Пост 29-Авг-2016 18:13

[Q] 

somik

Легенда

-Чак / Chuck-- Производство: США, College Hill Pictures Inc., Fake Empire, Warner Bros. Television, Wonderland Sound and Vision, ...
Жанр: Комедийный боевик
Год выпуска: 2007 г.
Продолжительность: 00:43:00
Мировая премьера: 24 сентября 2007
Российская премьера: 21 марта 2011
Перевод: Профессиональный (многоголосый, закадровый) [Kravec (MTV)]
Режиссер: Крис Федак / Chris Fedak, ...-В ролях: Захари Левай / Zachary Levi, Ивонн Страховски / Yvonne Strahovski, Адам Болдуин / Adam Baldwin, Джош Гомез / Joshua Gomez, Сара Ланкастер / Sarah Lancaster, Райан МакПартлин / Ryan McPartlin, Марк Кристофер Лоуренс / Mark Christopher Lawrence, Бонита Фридериси / Bonita Friedericy-Описание: В один прекрасный день, к простому парню Чаку, работающему в обычном торговом центре, попадают все секреты спецслужб США. Теперь у него в голове — суперкомпьютер, а он сам — собственность правительства Соединенных Штатов…-
Качество видео: HDRip
Контейнер: AVI
Видео кодек: XviD
Аудио кодек: AC3
Видео: 720x400 (1.80:1), 23.976 fps, XviD build 47 ~1595 kbps avg, 0.23 bit/pixel
Аудио: 48 kHz, AC3 Dolby Digital, 2/0 (L,R) ch, ~192 kbps
Cубтитры: отсутствуют
Сатурн, 2010 год
Номинации (2):
Лучший телеактер (Закари Левай)
Лучший телесериал, созданный для телетрансляции
Эмми, 2008 год
Номинации (1):
Лучшие вступительные титры
Этот шедевр собрал в себе казалось бы неуместимые, разнородные компоненты — оригинальный юмор, великолепный сюжет и, как это не банально, драму.
На первый взгляд несовместимые вещи. Но в процессе просмотра сериала оказалось, что эти три жанра не просто «ужились вместе», но и взаимодействуют самым невероятным образом. Стартовав как легкий комедийный боевик, сериал начинает обрастать драматическими момента в тандеме с закрученным сюжетом.
Кто бы мог ожидать, что все события соберутся в некий пазл, разрешения которого ожидается в пятом сезоне.
Отдельное слово об актерском составе — он идеален, начиная от шпионской команды во главе с Закари Левай(Чак), Ивонн Страховски (Сара), Адам Болдуин(Кейси) и заканчивая «сумасшедшим» персоналом магазина Buy More.
10 из 10
Общее
Полное имя : D:\D\Чак\Chuck.S01.MTV.[pirat.ca]\Chuck.1x01.HDRip.Rus.[pirat.ca].avi
Формат : AVI
Формат/Информация : Audio Video Interleave
Размер файла : 556 Мбайт
Продолжительность : 43 м.
Общий поток : 1797 Кбит/сек
Название фильма : Chuck.1x01.HDRip.Rus.[pirat.ca]
Программа кодирования : VirtualDubModRus 1.5.10.1 (build 2439/release)
Видео
Идентификатор : 0
Формат : MPEG-4 Visual
Профиль формата : Advanced [email protected]
Параметр BVOP формата : 3
Параметр QPel формата : Нет
Параметр GMC формата : Без точки перехода
Параметр матрицы формата : Default (MPEG)
Идентификатор кодека : XVID
Идентификатор кодека/Подсказка : XviD
Продолжительность : 43 м.
Битрейт : 1596 Кбит/сек
Ширина : 720 пикселей
Высота : 400 пикселей
Соотношение сторон : 16:9
Частота кадров : 23,976 (23976/1000) кадра/сек
Цветовое пространство : YUV
Субдискретизация насыщенности : 4:2:0
Битовая глубина : 8 бит
Тип развёртки : Прогрессивная
Метод сжатия : С потерями
Бит/(Пиксели*Кадры) : 0.231
Размер потока : 494 Мбайт (89%)
Библиотека кодирования : XviD 1.2.0.dev47 (UTC 2006-11-01)
Аудио
Идентификатор : 1
Формат : AC-3
Формат/Информация : Audio Coding 3
Расширение режима : CM (complete main)
Параметр Endianness формата : Big
Идентификатор кодека : 2000
Продолжительность : 43 м.
Вид битрейта : Постоянный
Битрейт : 192 Кбит/сек
Каналы : 2 канала
Расположение каналов : Front: L R
Частота : 48,0 КГц
Частота кадров : 31,250 кадров/сек (1536 spf)
Метод сжатия : С потерями
Размер потока : 59,4 Мбайт (11%)
Выравнивание : Разделение по промежуткам
Продолжительность промежутка : 42 мс. (1,00 видеокадр)
Время предзагрузки промежутка : 500 мс.
Download / Скачать

Хотите скачать бесплатно? Зарегистрируйтесь на сайте (ссылка на регистрацию). Pirat.ca - самый быстрый торрент трекер в рунете!

Как скачивать  ·   Что такое торрент  ·   Рейтинг и ограничения

Показать сообщения:    
Ответить на тему

Текущее время: Сегодня 12:08

Часовой пояс: GMT + 4



Вы не можете начинать темы
Вы не можете отвечать на сообщения
Вы не можете редактировать свои сообщения
Вы не можете удалять свои сообщения
Вы не можете голосовать в опросах
Вы не можете прикреплять файлы к сообщениям
Вы не можете скачивать файлы

▼ Вниз