ML
     
  Уважаемый Гость!
Вы можете поддержать проект и зарегистрироваться у наших партнеров - онлайн-стратегия MyLands. При регистрации в игре Вы получите код, который сможете активировать после регистрации на pirat.ca и получить 1000 дублонов.

Ваш код:
8dcb839cf1b47e56d6dc42d17f26b3e4822e9aee
 
     

Светлячок / Firefly / Сезон: 1 / Серии: 14 из 14 (Джосс Уидон / Joss Whedon) [2002 г., фантастика, BDRip, 720p, HEVC (x265)] DVO (Кириллица) + DVO (Tycoon) + MVO (Неизв.) + AVO (Сербин) + AVO (Чернышев) + MVO (ТВ3) + Original (Eng) + SUB (RUS, ENG)

Ответить на тему
 
Автор
Сообщение

Пост 29-Авг-2016 19:42

[Q] 

somik

Легенда

-Светлячок / Firefly-- Производство: США, 20th Century Fox Television, Mutant Enemy, ...
Жанр: фантастика, боевик
Год выпуска: 2002 г.
Продолжительность: 00:43:00
Мировая премьера: 27 сентября 2002
Перевод 1: Профессиональный (двухголосый, закадровый) [Кириллица]
Перевод 2: Профессиональный (двухголосый, закадровый) [Tycoon]
Перевод 3: Неизвестный MVO
Перевод 4: Сербин AVO
Перевод 5: Чернышев AVO
Перевод 6: ТВ3 MVO
Оригинальный аудиопоток: английский
Режиссер: Джосс Уидон / Joss Whedon-В ролях: Натан Филлион / Nathan Fillion, Джина Торрес / Gina Torres, Алан Тьюдик /Alan Tudyk, Морена Баккарин / Morena Baccarin, Адам Болдуин / Adam Baldwin, Джевел Стэйт / Jewel Staite, Шон Мехер / Sean Maher, Саммер Гло / Summer Glau, Рон Гласс / Ron Glass
Перевод: Сборка шести переводов:
«Кириллица» (телеканал Sony Sci-Fi / AXN Sci-Fi) профессиональный двухголосый закадровый.
Tycoon профессиональный двухголосый закадровый + субтитры.
Неизвестный многоголосый закадровый.
Ю. Сербин авторский одноголосый.
Михаил Чернышев авторский одноголосый.
ТВ3 профессиональный многоголосый закадровый.-Описание: Капитан Малькольм Рейнольдс — закаленный в боях ветеран галактической гражданской войны, сражавшийся не на той (проигравшей) стороне, зарабатывает на жизнь мелкими преступлениями и перевозит грузы на своем корабле «Серенити».
Он возглавляет небольшую разношерстную команду, которая порядком смахивает на самую обычную семью — ее члены вечно ссорятся, не соблюдают дисциплину, но никогда не предадут своего капитана и пойдут за ним хоть на край света.-
Качество видео: BDRip
Контейнер: MKV
Стандарт разрешения: 720p
Видео кодек: HEVC (x265)
Аудио кодек: AAC
Видео: HEVC 1280x720 23.976fps ~500kbps ([email protected]@Main, yuv420p)
Аудио #1: HE-AAC, 48.0 kHz, stereo, Кириллица DVO [Russian], ~64kbps VBR
Аудио #2: HE-AAC, 48.0 kHz, stereo, Tycoon DVO [Russian], ~64kbps VBR
Аудио #3: HE-AAC, 48.0 kHz, stereo, Неизвестный MVO [Russian], ~64kbps VBR
Аудио #4: HE-AAC, 48.0 kHz, stereo, Сербин AVO [Russian], ~64kbps VBR
Аудио #5: HE-AAC, 44.1 kHz, stereo, Чернышев AVO [Russian], ~64kbps VBR
Аудио #6: HE-AAC, 48.0 kHz, stereo, ТВ3 MVO [Russian], ~64kbps VBR
Аудио #7: HE-AAC, 48.0 kHz, stereo, English, ~64kbps VBR
Cубтитры: русские, английские
Формат субтитров: softsub (SRT)
SRT, S_TEXT/UTF8, Full (Tycoon) [Russian]
SRT, S_TEXT/UTF8, Full [English]
Доп. информация о субтитрах: включаемые
Кодек: HEVC/H.265. Для воспроизведения нового формата сжатия (HEVC/H.265), возможно, потребуется обновление проигрывателя. Для Windows, например, можно использовать K-Lite Codec Pack www.codecguide.com/download_kl.htm, CherryPlayer
Список серий:
01. Серенити - части 2 из 2 (пилот)
02. Ограбление поезда
03. Нападение
04. Вечеринка
05. Вызволение
06. Наша миссис Рейнолдс
07. Джейнбург
08. Авария
09. Ариэль
10. Военные байки
11. Помойка
12. Послание
13. Золотое сердце
14. Объекты в пространстве
Капитан Малькольм «Мэл» Рейнольдс занял 18 место в списке «25 величайших легенд фантастики» по версии журнала TV Guide.
После того как сериал был закрыт, Адам Болдуин, Джина Торрес и Нэйтан Филлион сыграли в других проектах Джосса Уидона: Адам и Джина появились в сериале «Ангел» (1999-2004), Нэйтан — в «Баффи — истребительница вампиров» (1997-2003). Все трое сыграли злодеев.
Декорации внутреннего помещения «Serenity» были построены в натуральную величину, практически все комнаты были взаимосвязаны друг с другом точно так же, как показано в сериале. Декораторы лишь разделили верхнюю и нижнюю палубы, построив для каждой из них свою собственную съёмочную площадку.
По словам Джосса Уидона, он загорелся желанием сделать данный сериал, после того как прочитал роман Майкла Шаары «Ангелы-убийцы» (The Killer Angels).
Дословный перевод «Firefly» — «Светлячок». Класс транспортников «Firefly» назван так потому, что при разгоне хвостовая часть корабля начинает ярко светиться, отдаленно напоминая светлячка.
Полное название Альянса — «Англо-китайский Альянс». По версии Джосса Уидона в Альянс вошли США и Китай, последние из мировых супердержав. Что, в свою очередь, объясняет, почему персонажи иногда говорят по-китайски. Также на корабле можно заметить различные надписи на данном языке. Примечательно, что персонажи практически всегда предпочитают ругаться на китайском. Флаг Альянса, который можно заметить в пилотном эпизоде, — комбинация из флагов США и Китая.
Броня на солдатах Альянса в сериале — это излишек реквизита фильма «Звездный десант» (1997) Пола Верховена.
«Светлячок» стал первым телевизионным проектом, для которого были разработаны практически эксклюзивные спецэффекты, имитирующие съёмки ручной камерой: небольшая тряска, приближения, ручной фокус и т. д.
Ребекка Гэйхарт могла исполнить роль Инары.
До «Светлячка» Саммер Глау успела засветиться в проектах Джосса Уидона: она сыграла в одном из эпизодов сериала «Ангел» (1999-2004). Джосс запомнил её и позднее пригласил на роль Ривер.
Изначально предполагалось, что команда «Serenity» будет состоять из пяти человек. Однако, во время пре-продакшена, количество главных персонажей выросло до девяти человек.
Многих второстепенных персонажей или персонажей, которые так и не появились на экране, но упоминаются в разговорах, зовут точно так же, как и известных писателей-фантастов. Например, Бестер (первый механик на «Serenity») — Альфред Бестер, Бреннерт — Алан Бреннерт, Эллисон — Хэрлан Эллисон.
Сатурн, 2004 год
Победитель (1):
Лучшее DVD-издание телепрограммы
Сатурн, 2003 год
Победитель (1):
Премия журнала Cinescape (Genre Face of the Future) за лучшую мужскую роль ( Нэйтан Филлион )
Мы не можем умереть! Знаешь почему? Потому что мы — клёвые…
Великолепие сего творения, конечно же в его персонажах! Они харизматичны, интересны… героизм, отвага и смелость! Но у каждого эти качества проявляются по-своему! Не всегда и не везде. И не по одной и той же причине (!)…
Бывший вояка, (можно сказать) борец за справедливость, ныне капитан грузового кос. корабля «Серенити»; боевая подруга, Зои, с которой у него большое, но только дружеское прошлое; муж Зои, виртуозный пилот, слегка сентиментальный, но весёлый парень; корыстолюбивый наемник; разыскиваемые доктор и его сестра-«экстрасенс»; элитная проститутка, хотя, её называют — компаньонка; девушка-гений в механике, влюблённая в доктора; Пастырь!) Хотя, никто по-правде не верит в это.
Сия компания попадает в разные передряги, пытаясь заработать на существование. И как правильно замечено в описании сериала, порой, они похожи на самую настоящую семью, где ссоры, забавы и долг… долг перед командой и капитаном!
Должен признать, что «Светлячок» — второй сериал, после «X», который понравился мне и который хотелось смотреть дальше… а серий в нём оказалось мало, ведь его не стали снимать, на сколько мне известно, дальше 15-ой серии. Но этого достаточно, чтобы полюбить и запомнить его на долго!
10 из 10
Общее
Уникальный идентификатор : 231899591955938255835020951210075998935 (0xAE763CA07DEE2CF6AADC305498BDCAD7)
Полное имя : J:\Светлячок\Firefly.720p.[pirat.ca]\Firefly.E01.mkv
Формат : Matroska
Версия формата : Version 4 / Version 2
Размер файла : 587 Мбайт
Продолжительность : 1 ч. 26 м.
Общий поток : 946 Кбит/сек
Название фильма : Светлячок / Firefly (2002) S01E01 Serenity 1&2 / Серенити Часть 1&2
Дата кодирования : UTC 2015-12-24 13:32:01
Программа кодирования : mkvmerge v8.6.1 ('Flying') 64bit
Библиотека кодирования : libebml v1.3.3 + libmatroska v1.4.4
Видео
Идентификатор : 1
Формат : HEVC
Формат/Информация : High Efficiency Video Coding
Профиль формата : [email protected]@Main
Идентификатор кодека : V_MPEGH/ISO/HEVC
Продолжительность : 1 ч. 26 м.
Битрейт : 498 Кбит/сек
Ширина : 1280 пикселей
Высота : 720 пикселей
Соотношение сторон : 16:9
Режим частоты кадров : Постоянный
Частота кадров : 23,976 (24000/1001) кадра/сек
Цветовое пространство : YUV
Субдискретизация насыщенности : 4:2:0
Битовая глубина : 8 бит
Бит/(Пиксели*Кадры) : 0.023
Размер потока : 309 Мбайт (53%)
Библиотека кодирования : x265 1.6+174-4cccf22b00ee:[Windows][GCC 4.8.2][64 bit]
Язык : English
Default : Нет
Forced : Нет
Аудио #1
Идентификатор : 2
Формат : AAC
Формат/Информация : Advanced Audio Codec
Профиль формата : HE-AAC / LC
Идентификатор кодека : A_AAC
Продолжительность : 1 ч. 26 м.
Битрейт : 72,0 Кбит/сек
Каналы : 2 канала
Расположение каналов : Front: L R
Частота : 48,0 КГц / 24,0 КГц
Частота кадров : 23,438 кадра/сек (1024 spf)
Метод сжатия : С потерями
Задержка видео : 31 мс.
Размер потока : 44,2 Мбайт (8%)
Заголовок : Кириллица DVO
Язык : Russian
Default : Да
Forced : Нет
Аудио #2
Идентификатор : 3
Формат : AAC
Формат/Информация : Advanced Audio Codec
Профиль формата : HE-AAC / LC
Идентификатор кодека : A_AAC
Продолжительность : 1 ч. 26 м.
Битрейт : 61,2 Кбит/сек
Каналы : 2 канала
Расположение каналов : Front: L R
Частота : 48,0 КГц / 24,0 КГц
Частота кадров : 23,438 кадра/сек (1024 spf)
Метод сжатия : С потерями
Задержка видео : 31 мс.
Размер потока : 37,9 Мбайт (6%)
Заголовок : Tycoon DVO
Язык : Russian
Default : Нет
Forced : Нет
Аудио #3
Идентификатор : 4
Формат : AAC
Формат/Информация : Advanced Audio Codec
Профиль формата : HE-AAC / LC
Идентификатор кодека : A_AAC
Продолжительность : 1 ч. 26 м.
Битрейт : 66,2 Кбит/сек
Каналы : 2 канала
Расположение каналов : Front: L R
Частота : 48,0 КГц / 24,0 КГц
Частота кадров : 23,438 кадра/сек (1024 spf)
Метод сжатия : С потерями
Задержка видео : 31 мс.
Размер потока : 40,3 Мбайт (7%)
Заголовок : Неизвестный MVO
Язык : Russian
Default : Нет
Forced : Нет
Аудио #4
Идентификатор : 5
Формат : AAC
Формат/Информация : Advanced Audio Codec
Профиль формата : HE-AAC / LC
Идентификатор кодека : A_AAC
Продолжительность : 1 ч. 26 м.
Битрейт : 64,5 Кбит/сек
Каналы : 2 канала
Расположение каналов : Front: L R
Частота : 48,0 КГц / 24,0 КГц
Частота кадров : 23,438 кадра/сек (1024 spf)
Метод сжатия : С потерями
Задержка видео : 31 мс.
Размер потока : 40,0 Мбайт (7%)
Заголовок : Сербин AVO
Язык : Russian
Default : Нет
Forced : Нет
Аудио #5
Идентификатор : 6
Формат : AAC
Формат/Информация : Advanced Audio Codec
Профиль формата : HE-AAC / LC
Идентификатор кодека : A_AAC
Продолжительность : 1 ч. 26 м.
Битрейт : 59,3 Кбит/сек
Каналы : 2 канала
Расположение каналов : Front: L R
Частота : 44,1 КГц / 22,05 КГц
Частота кадров : 21,533 кадра/сек (1024 spf)
Метод сжатия : С потерями
Задержка видео : 226 мс.
Размер потока : 36,8 Мбайт (6%)
Заголовок : Чернышев AVO
Язык : Russian
Default : Нет
Forced : Нет
Аудио #6
Идентификатор : 7
Формат : AAC
Формат/Информация : Advanced Audio Codec
Профиль формата : HE-AAC / LC
Идентификатор кодека : A_AAC
Продолжительность : 1 ч. 26 м.
Битрейт : 58,4 Кбит/сек
Каналы : 2 канала
Расположение каналов : Front: L R
Частота : 48,0 КГц / 24,0 КГц
Частота кадров : 23,438 кадра/сек (1024 spf)
Метод сжатия : С потерями
Задержка видео : 31 мс.
Размер потока : 36,2 Мбайт (6%)
Заголовок : ТВ3 MVO
Язык : Russian
Default : Нет
Forced : Нет
Аудио #7
Идентификатор : 8
Формат : AAC
Формат/Информация : Advanced Audio Codec
Профиль формата : HE-AAC / LC
Идентификатор кодека : A_AAC
Продолжительность : 1 ч. 26 м.
Битрейт : 64,0 Кбит/сек
Каналы : 2 канала
Расположение каналов : Front: L R
Частота : 48,0 КГц / 24,0 КГц
Частота кадров : 23,438 кадра/сек (1024 spf)
Метод сжатия : С потерями
Задержка видео : 31 мс.
Размер потока : 39,7 Мбайт (7%)
Язык : English
Default : Нет
Forced : Нет
Текст #1
Идентификатор : 9
Формат : UTF-8
Идентификатор кодека : S_TEXT/UTF8
Идентификатор кодека/Информация : UTF-8 Plain Text
Продолжительность : 1 ч. 24 м.
Битрейт : 109 бит/сек
Count of elements : 1072
Размер потока : 68,3 Кбайт (0%)
Заголовок : Full (Tycoon)
Язык : Russian
Default : Нет
Forced : Нет
Текст #2
Идентификатор : 10
Формат : UTF-8
Идентификатор кодека : S_TEXT/UTF8
Идентификатор кодека/Информация : UTF-8 Plain Text
Продолжительность : 1 ч. 25 м.
Битрейт : 67 бит/сек
Count of elements : 1068
Размер потока : 41,9 Кбайт (0%)
Заголовок : Full
Язык : English
Default : Нет
Forced : Нет
Меню
00:00:00.000 : en:Last Stand
00:05:06.514 : en:Vultures
00:10:58.783 : en:Main Titles
00:11:50.709 : en:Crew Plus One
00:16:46.797 : en:Den of Thieves
00:22:06.825 : en:A Boatful of Citizens
00:27:37.989 : en:Public Relations
00:34:20.099 : en:Companionable
00:36:04.495 : en:Mole on Board
00:42:12.488 : en:Worth Killing For
00:47:43.902 : en:A World of Trouble
00:50:26.523 : en:Bribery
00:53:00.302 : en:Campfire Stories
00:56:50.990 : en:Mean Old Man
00:58:55.657 : en:Lost in the Woods
01:01:39.987 : en:Government Goods
01:04:26.862 : en:Impatience
01:13:22.940 : en:Return of the Reavers
01:20:39.668 : en:Still Flying
01:25:48.476 : en:End Titles
Download / Скачать

Хотите скачать бесплатно? Зарегистрируйтесь на сайте (ссылка на регистрацию). Pirat.ca - самый быстрый торрент трекер в рунете!

Как скачивать  ·   Что такое торрент  ·   Рейтинг и ограничения

AugustBeniowski

Лоцман

Пост 29-Авг-2016 23:10 (спустя 3 часа)

[Q] 

Великое кино.
Лучший фантастический сериал всех времён (по мнению десятков миллионов людей).
Натан Филлион, Джина Торрес, Морена Баккарин - сегодня это очень популярные актёры, но большинство зрителей узнало о них именно из "Светлячка".
Через несколько лет после закрытия сериала фанаты за несколько дней собрали около миллиона долларов, чтобы выкупить права на "Ferefly" у кинокомпании. Но тупоголовый Мердок отказался продавать идею сериала. После чего репутация Fox была очень сильно "опущена" среди киноманов (и сами не снимают продолжение, и другим не дают).
Короче, смотреть обязательно.
Всем качать!!! Автору респект!!!
[Профиль]  [ЛС] 

ara1205

69744

Пост 29-Авг-2016 23:28 (спустя 17 минут)

[Q] 

Полностью согласен с выше написанным, рекомендую ещё посмотреть Киноверсию этого сериала
Миссия «Серенити» / Serenity (Джосс Уэдон / Joss Whedon) [2005 г., фантастика, боевик, триллер, приключения, BDRip] Dub
[Профиль]  [ЛС] 
Показать сообщения:    
Ответить на тему

Текущее время: Сегодня 04:12

Часовой пояс: GMT + 4



Вы не можете начинать темы
Вы не можете отвечать на сообщения
Вы не можете редактировать свои сообщения
Вы не можете удалять свои сообщения
Вы не можете голосовать в опросах
Вы не можете прикреплять файлы к сообщениям
Вы не можете скачивать файлы

▼ Вниз