ML
     
  Уважаемый Гость!
Вы можете поддержать проект и зарегистрироваться у наших партнеров - онлайн-стратегия MyLands. При регистрации в игре Вы получите код, который сможете активировать после регистрации на pirat.ca и получить 1000 дублонов.

Ваш код:
93dbf9fbdfa06c41d3b5a2c3921149ba36168c41
 
     

От заката до рассвета / From Dusk Till Dawn / Сезон: 3 / Серии: 10 из 10 (Роберт Родригес / Robert Rodriguez, ...) [2016 г., боевик, ужасы, криминал, фэнтези, ..., WEB-DLRip] MVO (NewStudio) + Original (Eng) [Финал]

Ответить на тему
 
Автор
Сообщение

Пост 29-Авг-2016 22:26

[Q] 

kugesan

-От заката до рассвета / From Dusk Till Dawn-- Производство: США
Жанр: боевик, ужасы, криминал, фэнтези, ...
Год выпуска: 2016 г.-Премьера (мир): 11 марта 2014, ...-Релиз: Студия
Перевод: Профессиональный (многоголосый, закадровый)
Оригинальный аудиопоток: английский-Автор перевода: Наталия Черненко
Постер: Vortex-Режиссер: Роберт Родригес / Robert Rodriguez, Джо Менендес / Joe Menendez, Эдуардо Санчес / Eduardo Sánchez, ...-В ролях: Ди Джей Котрона (Сет Гекко), Зейн Холц (Ричи Гекко), Роберт Патрик (Джейкоб Фуллер), Мэдисон Девенпорт (Кейт Фуллер), Брэндон Су Ху (Скотт Фуллер), Джесси Гарсия (Фредди Гонсалес), Уилмер Валдеррама (Карлос), Эйса Гонсалес (Сантанико Пандемониум).-Описание:
Сет (Ди Джей Котрона) и Ричи Гекко (Зейн Холц) — братья, промышляющие грабежом банков. После очередного дела они становятся главной мишенью ФБР и пускаются в бега. По дороге они берут в заложники семью священника Фуллера (Роберт Патрик) и на его фургоне отправляются в стрип-клуб Titty Twister, где их должен ждать подельник Карлос (Уилмер Валдеррама). Но прибыв на место, Сет и Ричи обнаруживают, что посетители клуба — сплошь упыри и вампиры. Теперь братьям Гекко и их заложникам предстоит сплотить силы и сразиться с армией нечисти...-
Сезон: 3
Серии: 10 из 10 серий
Продолжительность: ~ 00:45:00 мин серия-Качество видео: WEB-DLRip
Контейнер: AVI
Видео кодек: XviD
Аудио кодек: MP3
Видео: MPEG-4 Visual at 1554 Кбит/сек: 720 x 400 (1.800) at 23.976 fps, 0.22 Бит/Пиксели
Аудио Rus: MPEG Audio at 128 Кбит/сек: 2 канала, 48,0 КГц |NewStudio|
Аудио Eng: MPEG Audio at 128 Кбит/сек: 2 канала, 48,0 КГц |Original|
Cубтитры: отсутствуют
- -
  • Игры разума (Head Games)
  • Королева (La Reina)
  • Служить и защищать (Protect and Serve)
  • Фанглориус (Fanglorious)
  • Шейди Глен (Shady Glen)
  • Смирительная рубашка (Straightjacket)
  • Ла Йорона (La Llorona)
  • Рио Сангре ( Rio Sangre)
  • Матанзас (Matanzas)
  • Тёмная сторона солнца (Dark Side of the Sun)
-
Общее
Полное имя : E:\_Сериалы\_Сериалы\От заката до рассвета\From.Dusk.Till.Dawn.s03.WEBDLRip.NewStudio\From.Dusk.Till.Dawn.s03e01.WEBDLRip.NewStudio.TV.avi
Формат : AVI
Формат/Информация : Audio Video Interleave
Размер файла : 550 Мбайт
Продолжительность : 42 м.
Общий поток : 1824 Кбит/сек
Программа кодирования : VirtualDubMod 1.5.10.2 (build 2540/release)
Библиотека кодирования : VirtualDubMod build 2540/release
Видео
Идентификатор : 0
Формат : MPEG-4 Visual
Профиль формата : Advanced [email protected]
Параметр BVOP формата : 2
Параметр QPel формата : Да
Параметр GMC формата : Без точки перехода
Параметр матрицы формата : Default (MPEG)
Режим смешивания : Сжатый битовый поток
Идентификатор кодека : XVID
Идентификатор кодека/Подсказка : XviD
Продолжительность : 42 м.
Битрейт : 1554 Кбит/сек
Ширина : 720 пикселей
Высота : 400 пикселей
Соотношение сторон : 16:9
Частота кадров : 23,976 (23976/1000) кадра/сек
Цветовое пространство : YUV
Субдискретизация насыщенности : 4:2:0
Битовая глубина : 8 бит
Тип развёртки : Прогрессивная
Метод сжатия : С потерями
Бит/(Пиксели*Кадры) : 0.225
Размер потока : 469 Мбайт (85%)
Библиотека кодирования : XviD 73
Аудио #1
Идентификатор : 1
Формат : MPEG Audio
Версия формата : Version 1
Профиль формата : Layer 3
Режим : Joint stereo
Расширение режима : MS Stereo
Идентификатор кодека : 55
Идентификатор кодека/Подсказка : MP3
Продолжительность : 42 м.
Вид битрейта : Постоянный
Битрейт : 128 Кбит/сек
Каналы : 2 канала
Частота : 48,0 КГц
Метод сжатия : С потерями
Размер потока : 38,6 Мбайт (7%)
Выравнивание : Соединение по промежуткам
Продолжительность промежутка : 42 мс. (1,00 видеокадр)
Время предзагрузки промежутка : 504 мс.
Аудио #2
Идентификатор : 2
Формат : MPEG Audio
Версия формата : Version 1
Профиль формата : Layer 3
Режим : Joint stereo
Идентификатор кодека : 55
Идентификатор кодека/Подсказка : MP3
Продолжительность : 42 м.
Вид битрейта : Постоянный
Битрейт : 128 Кбит/сек
Каналы : 2 канала
Частота : 48,0 КГц
Метод сжатия : С потерями
Размер потока : 38,6 Мбайт (7%)
Выравнивание : Соединение по промежуткам
Продолжительность промежутка : 42 мс. (1,00 видеокадр)
Время предзагрузки промежутка : 504 мс.
Библиотека кодирования : LAME3.99r
Настройки программы : -m j -V 4 -q 2 -lowpass 17 -b 128
-
-Скриншоты:
-
-
Раздача ведётся путём добавления новых серий; при каждом добавлении создаётся новый торрент.
Чтобы начать докачку новой серии, пользователям необходимо сделать следующее:
1. остановить скачивание,
2. удалить старый торрент у себя из клиента (старые серии удалять не надо),
3. скачать новый торрент и запустить его у себя в клиенте вместо старого, при этом указать клиенту путь в старую папку, куда и должно происходить скачивание новых серий.
Ваш клиент при этом должен произвести хеширование (проверку) старой папки (если не производит сам - помогите ему сделать это), и будет докачивать только те серии которых у вас ещё нет. Старые серии при этом не удаляются, а продолжают раздаваться!
Eсли вы уже удалили старые серии, то предотвратить повторную закачку старых серий можно, отжав галочку в соответствующих местах при запуске нового торрента. По возможности, желательно не удалять старые серии как можно дольше, чтобы релизёр не столько продолжал раздавать старые серии, а смог сконцентрироваться на новых.
Совет для тех, кто не хочет ждать перехеширования:
Создайте ещё одну папку рядом с папкой сериала (рядом, а не в ней!!!). Каждую новую серию после удачной загрузки копируйте в новую папку так чтобы ваша основная папка всегда была пуста. Когда ваш новый торрент предложит вам закачать все файлы, выберете только последнюю. Для сидирования же укажите адрес новой папки.
Как закачать отдельный файл из торрента или докачать ранее пропущенные файлы торрента!
-
1. Открыть торрент
2. Снять галки с тех файлов торрента, которые мы не хотим закачивать. Оставляем только на нужных нам файлах (файле).
3. Нажать О.К.
В клиенте utorrent
Инструкция
1) Открыть торрент

2) Снять галки с тех файлов торрента, которые мы не хотим закачивать:
* либо вручную, снимая с каждого файла галку( скрин №1)
* либо, нажав кнопку "Снять метки (Select None)", сняв сразу со всех файлов(скрин №2)
№1

№2

Оставляем только на нужных нам файлах (файле).

3)Нажать О.К
Приятного просмотра!!!-
Download / Скачать

Хотите скачать бесплатно? Зарегистрируйтесь на сайте (ссылка на регистрацию). Pirat.ca - самый быстрый торрент трекер в рунете!

Как скачивать  ·   Что такое торрент  ·   Рейтинг и ограничения

Показать сообщения:    
Ответить на тему

Текущее время: Сегодня 20:18

Часовой пояс: GMT + 4



Вы не можете начинать темы
Вы не можете отвечать на сообщения
Вы не можете редактировать свои сообщения
Вы не можете удалять свои сообщения
Вы не можете голосовать в опросах
Вы не можете прикреплять файлы к сообщениям
Вы не можете скачивать файлы

▼ Вниз