ML
     
  Уважаемый Гость!
Вы можете поддержать проект и зарегистрироваться у наших партнеров - онлайн-стратегия MyLands. При регистрации в игре Вы получите код, который сможете активировать после регистрации на pirat.ca и получить 1000 дублонов.

Ваш код:
cc3be08b7507661c03e0a2f582d0da3a659ea55a
 
     

Дефективный детектив / Monk / Сезон: 1 / Серии: 12 из 12 (Рэндолл Зиск / Randall Zisk, ...) [2002 г., Детективная комедия, DVDRip] MVO (R5)

Ответить на тему
 
Автор
Сообщение

Пост 29-Авг-2016 22:29

[Q] 

somik

Легенда

-Дефективный детектив / Monk-- Производство: США, ABC Studios, Mandeville Films, Moratim Produktions, NBC Universal Television, Touchstone Television, Universal Media Studios (UMS), USA Cable Entertainment LLC, ...
Жанр: Детективная комедия
Год выпуска: 2002 г.
Продолжительность: 00:45:00
Мировая премьера: 12 июля 2002
Перевод: Профессиональный (многоголосый, закадровый) [R5]
Режиссер: Рэндолл Зиск / Randall Zisk, ...-В ролях: Тони Шэлуб, Джейсон Грей-Стенфорд, Тед Левайн, Трейлор Ховард, Стенли Кэмел, Битти Шрэм, Эмми Кларк-Описание: Казалось, ничто не в силах помешать стремительному восхождению к вершинам карьеры детектива Эдриана Монка. Но нераскрытое убийство любимой жены — Труди — явилось слишком сильным ударом для суперпрофессионала. Пережитая драма повлекла за собой серьезные психологические расстройства, абсолютно несовместимые с работой в полиции. И службу пришлось оставить. Рядом с Монком теперь постоянно находится медсестра Шарона, которая пытается помочь ему восстановить утраченные душевные и физические силы. И постепенно Шарона становится для Монка кем-то вроде доктора Ватсона при Шерлоке Холмсе. А тем временем полицейский департамент бьется над раскрытием очередного запутанного дела и, в конце концов, осознает необходимость подключения Монка в качестве частного консультанта к расследованию.-
Качество видео: DVDRip
Контейнер: AVI
Видео кодек: XviD
Аудио кодек: AC3
Видео: 640x352 (1.82:1), 25 fps, XviD build 12 ~1090 kbps avg, 0.19 bit/pixel
Аудио: 48 kHz, AC3 Dolby Digital, 2/0 (L,R) ch, ~192 kbps
Cубтитры: отсутствуют
Все серии сериала начинаются на Mr.Monk… (Мистер Монк…).
Стенли Кэмел умер от сердечного приступа, как в жизни, так и в сериале.
Фамилия Монк переводится как Монах
Эмми, 2010 год
Номинации (1):
Лучшая мужская роль в комедийном сериале (Тони Шэлуб)
Премия Гильдии актеров, 2010 год
Номинации (1):
Лучший актер комедийного сериала (Тони Шэлуб)
Золотой глобус, 2009 год
Номинации (1):
Лучшая мужская роль на ТВ (комедия или мюзикл) (Тони Шэлуб)
Эмми, 2009 год
Номинации (2):
Лучшая мужская роль в комедийном сериале (Тони Шэлуб)
Лучшая приглашенная актриса в комедийном сериале (Джина Роулендс)
Премия Гильдии актеров, 2009 год
Номинации (1):
Лучший актер комедийного сериала (Тони Шэлуб)
Эмми, 2008 год
Номинации (2):
Лучшая мужская роль в комедийном сериале (Тони Шэлуб)
Лучшая приглашенная актриса в комедийном сериале (Сара Силверман)
Премия Гильдии актеров, 2008 год
Номинации (1):
Лучший актер комедийного сериала (Тони Шэлуб)
Золотой глобус, 2007 год
Номинации (1):
Лучшая мужская роль на ТВ (комедия или мюзикл) (Тони Шэлуб)
Эмми, 2007 год
Победитель (1):
Лучший приглашенный актер в комедийном сериале ( Стэнли Туччи )
Номинации (1):
Лучшая мужская роль в комедийном сериале (Тони Шэлуб)
Премия Гильдии актеров, 2007 год
Номинации (1):
Лучший актер комедийного сериала (Тони Шэлуб)
Эмми, 2006 год
Победитель (1):
Лучшая мужская роль в комедийном сериале ( Тони Шэлуб )
Номинации (1):
Лучшая приглашенная актриса в комедийном сериале (Лори Меткаф)
Золотой глобус, 2005 год
Номинации (1):
Лучшая мужская роль на ТВ (комедия или мюзикл) (Тони Шэлуб)
Эмми, 2005 год
Победитель (1):
Лучшая мужская роль в комедийном сериале ( Тони Шэлуб )
Премия Гильдии актеров, 2005 год
Победитель (1):
Лучший актер комедийного сериала ( Тони Шэлуб )
Золотой глобус, 2004 год
Номинации (3):
Лучшая мужская роль на ТВ (комедия или мюзикл) (Тони Шэлуб)
Лучшая женская роль на ТВ (комедия или мюзикл) (Битти Шрэм)
Лучший сериал (комедия или мюзикл)
Эмми, 2004 год
Победитель (1):
Лучший приглашенный актер в комедийном сериале ( Джон Туртурро )
Номинации (1):
Лучшая мужская роль в комедийном сериале (Тони Шэлуб)
Премия Гильдии актеров, 2004 год
Победитель (1):
Лучший актер комедийного сериала ( Тони Шэлуб )
Золотой глобус, 2003 год
Победитель (1):
Лучшая мужская роль на ТВ (комедия или мюзикл) ( Тони Шэлуб )
Эмми, 2003 год
Победитель (1):
Лучшая мужская роль в комедийном сериале ( Тони Шэлуб )
Премия Гильдии актеров, 2003 год
Номинации (1):
Лучший актер комедийного сериала (Тони Шэлуб)
бщее
Полное имя : J:\Монк\Monk.S01.[pirat.ca]\monks1part01.avi
Формат : AVI
Формат/Информация : Audio Video Interleave
Размер файла : 694 Мбайт
Продолжительность : 1 ч. 15 м.
Общий поток : 1293 Кбит/сек
Программа кодирования : Nandub v1.0rc2
Библиотека кодирования : VirtualDub-MPEG2 build 24600/release
Видео
Идентификатор : 0
Формат : MPEG-4 Visual
Профиль формата : [email protected]
Параметр BVOP формата : Нет
Параметр QPel формата : Нет
Параметр GMC формата : Без точки перехода
Параметр матрицы формата : Default (H.263)
Идентификатор кодека : XVID
Идентификатор кодека/Подсказка : XviD
Продолжительность : 1 ч. 15 м.
Битрейт : 1091 Кбит/сек
Ширина : 640 пикселей
Высота : 352 пикселя
Соотношение сторон : 16:9
Частота кадров : 25,000 кадров/сек
Частота кадров в оригинале : 23,976 кадра/сек
Цветовое пространство : YUV
Субдискретизация насыщенности : 4:2:0
Битовая глубина : 8 бит
Тип развёртки : Прогрессивная
Метод сжатия : С потерями
Бит/(Пиксели*Кадры) : 0.194
Размер потока : 586 Мбайт (84%)
Библиотека кодирования : XviD 0.0.12 (UTC 2003-06-11)
Аудио
Идентификатор : 1
Формат : AC-3
Формат/Информация : Audio Coding 3
Расширение режима : CM (complete main)
Параметр Endianness формата : Big
Идентификатор кодека : 2000
Продолжительность : 1 ч. 15 м.
Вид битрейта : Постоянный
Битрейт : 192 Кбит/сек
Каналы : 2 канала
Расположение каналов : Front: L R
Частота : 48,0 КГц
Частота кадров : 31,250 кадров/сек (1536 spf)
Метод сжатия : С потерями
Размер потока : 103 Мбайт (15%)
Выравнивание : Соединение по промежуткам
Продолжительность промежутка : 40 мс. (1,00 видеокадр)
Время предзагрузки промежутка : 512 мс.
Download / Скачать

Хотите скачать бесплатно? Зарегистрируйтесь на сайте (ссылка на регистрацию). Pirat.ca - самый быстрый торрент трекер в рунете!

Как скачивать  ·   Что такое торрент  ·   Рейтинг и ограничения

Показать сообщения:    
Ответить на тему

Текущее время: Сегодня 05:08

Часовой пояс: GMT + 4



Вы не можете начинать темы
Вы не можете отвечать на сообщения
Вы не можете редактировать свои сообщения
Вы не можете удалять свои сообщения
Вы не можете голосовать в опросах
Вы не можете прикреплять файлы к сообщениям
Вы не можете скачивать файлы

▼ Вниз