ML
     
  Уважаемый Гость!
Вы можете поддержать проект и зарегистрироваться у наших партнеров - онлайн-стратегия MyLands. При регистрации в игре Вы получите код, который сможете активировать после регистрации на pirat.ca и получить 1000 дублонов.

Ваш код:
8dcb839cf1b47e56d6dc42d17f26b3e4822e9aee
 
     

Притворщик / The Pretender / Сезон: 1 / Серии: 22 из 22 (Фредерик Кинг Келлер / Frederick King Keller. ...) [1996 г., фантастика, триллер, драма, детектив, DVDRip] VO (LostFilm)

Ответить на тему
 
Автор
Сообщение

Пост 30-Авг-2016 03:46

[Q] 

somik

Легенда

-Притворщик / The Pretender-- Производство: США, 20th Century Fox Television, ...
Жанр: фантастика, триллер, драма, детектив
Год выпуска: 1996 г.
Продолжительность: 00:46:00
Мировая премьера: 19 сентября 1996
Перевод: Профессиональный (одноголосый, закадровый) [LostFilm]
Режиссер: Фредерик Кинг Келлер / Frederick King Keller. ...-В ролях: Майкл Т. Уайсс, Андреа Паркер, Патрик Бошо, Джон Грайз, Райан Мерриман, Алекс Вексо, Ричард Маркус, Джеймс Дентон, Сэм Эйерс, Харви Преснелл, ...-Описание: Среди нас есть Притворщики. Гении, способные стать любым, кем они захотят. В 1963 году корпорация под названием Центр изолировала юного Притворщика по имени Джарод и использовала его неординарные способности в своих целях. Но однажды Притворщик сбежал…-
Качество видео: DVDRip
Контейнер: AVI
Видео кодек: XviD
Аудио кодек: MP3
Видео: 640x480 (1.33:1), 23.976 fps, XviD build 47 ~992 kbps avg, 0.13 bit/pixel
Аудио: 48 kHz, MPEG Layer 3, 2 ch, ~192.00 kbps avg
Cубтитры: отсутствуют
Во второй серии 1 сезона во время прохождения симуляции, Джарод находит решение спасения экипажа космического корабля Аполлона 13, используя тягу луны, чтобы обогнуть ее и направить корабль в обратном направлении. Сама эта стратегия показана в фильме «Аполлон 13» (1995).
В третьей серии первого сезона, глядя на стереографии, Джарод говорит, что там изображены пингвин и сфинкс, пингвин верхом на верблюде. Если присмотреться, то можно увидеть, что на первой стереографии изображены динозавры, на второй — спорткар.
История, рассказанная в 19 серии третьего сезона, о «братьях» Джошуа и похищенном мальчике Бенксе, имеет продолжение — оно снято в сериале «Профайлер» (1996-2000), и там Джарод появляется в одном эпизоде.
Сатурн, 1998 год
Номинации (1):
Лучший жанровый телеактер (Майкл Т. Уайсс)
Сериал «Притворщик» (The Pretender) я могу назвать одним из самых интересных и захватывающих в своем жанре.
Главный герой — Джарод, гений, так называемый «притворщик» способный стать тем, кем захочет. Действие сериала начинается с того, что Джарод сбегает из секретной организации под названием Центр (The Centre) и начинает свой долгий путь в поиcках правды, о его происхождении, о его семье. Попутно он помогает тем, кто несправедливо обижен, а виновный не понес наказания. Тем временем, команда Центра, состоящая из очаровательной стервы Мисс Паркер, психолога Сидни и компьютерщика Брутса, делают все, чтобы его поймать и вернуть.
Каждая серия представляет собой отдельную историю, так сказать «преступления и наказания». В сериале хорошо показано, как люди, в погоне за властью, деньгами, славой, карьерой забывают порой, что жизнь — это дар. Любовь, дружба, семья — вот что главное, и об этом Джарод напоминает нам от серии к серии.
Загадочный Центр представляет в сериале воплощение всех грехов и пороков человечества: ложь, убийства, шантаж, Центр ни перед чем не остановится, чтобы заполучить Притворщика обратно. Увлекательное противостояние Джарода и Центра заставит понервничать, потому что никогда наверняка не известно, удастся ли Притворщику уйти от погони.
Обаятельные герои, напряженная интрига развития сюжета, раскрытие самых страшных тайн прошлого — все это заставит вас смотреть это сериал не отрываясь.
На мой взгляд, The Pretender заслуживет самого высокого балла:
10 из 10
Общее
Полное имя : J:\Притворщик\Pritvortchik.S01.[pirat.ca]\Pretender.s01.e02.rus.lostfilm.tv.avi
Формат : AVI
Формат/Информация : Audio Video Interleave
Размер файла : 396 Мбайт
Продолжительность : 46 м.
Общий поток : 1198 Кбит/сек
Программа кодирования : Nandub v1.0rc2
Библиотека кодирования : Nandub build 1853/release
Видео
Идентификатор : 0
Формат : MPEG-4 Visual
Профиль формата : Advanced [email protected]
Параметр BVOP формата : 1
Параметр QPel формата : Нет
Параметр GMC формата : Без точки перехода
Параметр матрицы формата : Выборочная
Идентификатор кодека : XVID
Идентификатор кодека/Подсказка : XviD
Продолжительность : 46 м.
Битрейт : 993 Кбит/сек
Ширина : 640 пикселей
Высота : 480 пикселей
Соотношение сторон : 4:3
Частота кадров : 23,976 (23976/1000) кадра/сек
Цветовое пространство : YUV
Субдискретизация насыщенности : 4:2:0
Битовая глубина : 8 бит
Тип развёртки : Прогрессивная
Метод сжатия : С потерями
Бит/(Пиксели*Кадры) : 0.135
Размер потока : 329 Мбайт (83%)
Библиотека кодирования : XviD 1.2.0.dev47 (UTC 2006-11-01)
Аудио
Идентификатор : 1
Формат : MPEG Audio
Версия формата : Version 1
Профиль формата : Layer 3
Режим : Joint stereo
Идентификатор кодека : 55
Идентификатор кодека/Подсказка : MP3
Продолжительность : 46 м.
Вид битрейта : Постоянный
Битрейт : 192 Кбит/сек
Каналы : 2 канала
Частота : 48,0 КГц
Метод сжатия : С потерями
Размер потока : 63,5 Мбайт (16%)
Выравнивание : Соединение по промежуткам
Продолжительность промежутка : 24 мс. (0,58 видеокадр)
Время предзагрузки промежутка : 480 мс.
Download / Скачать

Хотите скачать бесплатно? Зарегистрируйтесь на сайте (ссылка на регистрацию). Pirat.ca - самый быстрый торрент трекер в рунете!

Как скачивать  ·   Что такое торрент  ·   Рейтинг и ограничения

Пост 02-Сен-2016 14:33 (спустя 3 дня)

Топик был перенесен из форума Зарубежные сериалы (Трюм) в форум Зарубежные сериалы
erchine
 

kostykua

Шкипер

Пост 02-Сен-2016 22:17 (спустя 3 дня)

[Q] 

Ух ты!!!! СПАСИБО! смотрел по телику в далеком прошлом)
[Профиль]  [ЛС] 
Показать сообщения:    
Ответить на тему

Текущее время: Сегодня 04:18

Часовой пояс: GMT + 4



Вы не можете начинать темы
Вы не можете отвечать на сообщения
Вы не можете редактировать свои сообщения
Вы не можете удалять свои сообщения
Вы не можете голосовать в опросах
Вы не можете прикреплять файлы к сообщениям
Вы не можете скачивать файлы

▼ Вниз