ML
     
  Уважаемый Гость!
Вы можете поддержать проект и зарегистрироваться у наших партнеров - онлайн-стратегия MyLands. При регистрации в игре Вы получите код, который сможете активировать после регистрации на pirat.ca и получить 1000 дублонов.

Ваш код:
74c28610d77aaac24ba694c4128f3b9b46b04220
 
     

Штамм / The Strain / Сезон: 3 / Серии: 10 из 10 (Дж. Майлз Дэйл / J. Miles Dale , ...) [2016 г., ужасы, триллер, драма, WEB-DLRip] MVO (LostFilm) + Original (Eng) [финал сезона]

Ответить на тему
 
Автор
Сообщение

Пост 02-Сен-2016 21:30

[Q] 

kugesan

Штамм / The Strain- Русское название: Штамм
Оригинальное название: The Strain
Страна: США
Год выпуска: 2016
Жанр: ужасы, фантастика, драма, ...-Озвучка: Студия
Перевод: Многоголосый закадровый, профессиональный
Оригинальный аудиопоток: английский-Премьера (мир): 13 июля 2014, ...-Режиссер: Дж. Майлз Дэйл / J. Miles Dale , Фил Абрахам / Phil Abraham, Питер Уэллер / Peter Weller, ...
В главных ролях: Кори Столл, Дэвид Брэдли, Джим Уотсон, Кевин Дюран, Миа Маэстро, Бен Хайленд, Джонатан Хайд, Рихард Заммель, Мигель Гомес, Натали Браун, Джек Кеси, Шон Эстин, Роберт Мэйллет, Хавьер Ботет, Фрэнсис Капра, Роджер Р. Кросс, Лесли Хоуп, Реджина Кинг, Мелани Меркоски, Дрю Нельсон...-Описание фильма:
В аэропорту Нью-Йорка экстренно приземляется самолет, полный мертвецов. Для выяснения обстоятельств их смерти на борт направляются ученые, возглавляемые лучшим городским эпидемиологом Эфраимом Гудвезером. В ходе исследований становится ясно, что пассажиры заражены вирусом вампиризма, который грозит перерасти в масштабную эпидемию, способную погубить все человечество.
В обществе нарастает паника, а вызов болезни готовы бросить всего несколько человек: доктор Гудвезер, его команда медиков и группа обладающих специальными знаниями горожан, в состав которой войдет и крысолов по имени Василий Фет.-Сезон: 3
Серии: 10 из 10 серий
Продолжительность: ~ 00:58:00 мин серия-
Качество видео: WEB-DLRip
Формат: AVI
Видеокодек: XviD
Аудиокодек: Mp3
Видео: MPEG-4 Visual at 1546 Кбит/сек: 720 x 400 (1.800) at 23.976 fps, 0.22 Бит/Пиксели
Аудио Rus: MPEG Audio at 128 Кбит/сек: 2 канала, 48,0 КГц |LostFilm|
Аудио Eng: MPEG Audio at 128 Кбит/сек: 2 канала, 48,0 КГц |Original|
- -
  • Вперёд, Нью-Йорк
  • Дурная кровь
  • Первый Рожденный
  • Мёртв, но не забыт
  • Безумие
  • Битва в Центральном парке
  • Соучастники
  • Белый свет
  • Борись или умри
  • Падение
  • Упадок
-
Общее
Полное имя : E:\_Сериалы\_Сериалы\Штамм\The Strain (Season 03) LostFilm\The.Strain.[S03E01].XviD.LostFilm.[qqss44].avi
Формат : AVI
Формат/Информация : Audio Video Interleave
Размер файла : 555 Мбайт
Продолжительность : 42 м. 44 с.
Общий поток : 1816 Кбит/сек
Программа кодирования : VirtualDubMod 1.5.10.3 | www.virtualdub-fr.org || (build 2550/release)
Библиотека кодирования : VirtualDubMod build 2550/release
Видео
Идентификатор : 0
Формат : MPEG-4 Visual
Профиль формата : Advanced [email protected]
Параметр BVOP формата : 2
Параметр QPel формата : Нет
Параметр GMC формата : Без точки перехода
Параметр матрицы формата : Выборочная
Идентификатор кодека : XVID
Идентификатор кодека/Подсказка : XviD
Продолжительность : 42 м. 44 с.
Битрейт : 1546 Кбит/сек
Ширина : 720 пикселей
Высота : 400 пикселей
Соотношение сторон : 16:9
Частота кадров : 23,976 (23976/1000) кадра/сек
Цветовое пространство : YUV
Субдискретизация насыщенности : 4:2:0
Битовая глубина : 8 бит
Тип развёртки : Прогрессивная
Метод сжатия : С потерями
Бит/(Пиксели*Кадры) : 0.224
Размер потока : 473 Мбайт (85%)
Библиотека кодирования : XviD 73
Аудио #1
Идентификатор : 1
Формат : MPEG Audio
Версия формата : Version 1
Профиль формата : Layer 3
Режим : Joint stereo
Расширение режима : MS Stereo
Идентификатор кодека : 55
Идентификатор кодека/Подсказка : MP3
Продолжительность : 42 м. 44 с.
Вид битрейта : Постоянный
Битрейт : 128 Кбит/сек
Каналы : 2 канала
Частота : 48,0 КГц
Метод сжатия : С потерями
Размер потока : 39,1 Мбайт (7%)
Выравнивание : Соединение по промежуткам
Продолжительность промежутка : 42 мс. (1,00 видеокадр)
Время предзагрузки промежутка : 504 мс.
Аудио #2
Идентификатор : 2
Формат : MPEG Audio
Версия формата : Version 1
Профиль формата : Layer 3
Режим : Joint stereo
Расширение режима : MS Stereo
Идентификатор кодека : 55
Идентификатор кодека/Подсказка : MP3
Продолжительность : 42 м. 44 с.
Вид битрейта : Постоянный
Битрейт : 128 Кбит/сек
Каналы : 2 канала
Частота : 48,0 КГц
Метод сжатия : С потерями
Размер потока : 39,1 Мбайт (7%)
Выравнивание : Соединение по промежуткам
Продолжительность промежутка : 42 мс. (1,00 видеокадр)
Время предзагрузки промежутка : 504 мс.
-
-Скриншоты:
-
-
Раздача ведётся путём добавления новых серий; при каждом добавлении создаётся новый торрент.
Чтобы начать докачку новой серии, пользователям необходимо сделать следующее:
1. остановить скачивание,
2. удалить старый торрент у себя из клиента (старые серии удалять не надо),
3. скачать новый торрент и запустить его у себя в клиенте вместо старого, при этом указать клиенту путь в старую папку, куда и должно происходить скачивание новых серий.
Ваш клиент при этом должен произвести хеширование (проверку) старой папки (если не производит сам - помогите ему сделать это), и будет докачивать только те серии которых у вас ещё нет. Старые серии при этом не удаляются, а продолжают раздаваться!
Eсли вы уже удалили старые серии, то предотвратить повторную закачку старых серий можно, отжав галочку в соответствующих местах при запуске нового торрента. По возможности, желательно не удалять старые серии как можно дольше, чтобы релизёр не столько продолжал раздавать старые серии, а смог сконцентрироваться на новых.
Совет для тех, кто не хочет ждать перехеширования:
Создайте ещё одну папку рядом с папкой сериала (рядом, а не в ней!!!). Каждую новую серию после удачной загрузки копируйте в новую папку так чтобы ваша основная папка всегда была пуста. Когда ваш новый торрент предложит вам закачать все файлы, выберете только последнюю. Для сидирования же укажите адрес новой папки.
Как закачать отдельный файл из торрента или докачать ранее пропущенные файлы торрента!
-
1. Открыть торрент
2. Снять галки с тех файлов торрента, которые мы не хотим закачивать. Оставляем только на нужных нам файлах (файле).
3. Нажать О.К.
В клиенте utorrent
Инструкция
1) Открыть торрент

2) Снять галки с тех файлов торрента, которые мы не хотим закачивать:
* либо вручную, снимая с каждого файла галку( скрин №1)
* либо, нажав кнопку "Снять метки (Select None)", сняв сразу со всех файлов(скрин №2)
№1

№2

Оставляем только на нужных нам файлах (файле).

3)Нажать О.К
-Приятного просмотра!!!-
Download / Скачать

Хотите скачать бесплатно? Зарегистрируйтесь на сайте (ссылка на регистрацию). Pirat.ca - самый быстрый торрент трекер в рунете!

Как скачивать  ·   Что такое торрент  ·   Рейтинг и ограничения



Последний раз редактировалось: kugesan (2016-11-02 14:34), всего редактировалось 7 раз(а)

ksained_mate

Корсар

Пост 05-Окт-2016 11:48 (спустя 1 месяц 2 дня)

[Q] 

отличный сериал! спасибо!
[Профиль]  [ЛС] 

ss80

Флибустьер

36

Пост 05-Окт-2016 12:40 (спустя 52 минуты)

[Q] 

Спасибо!!! Автору респект!!!
[Профиль]  [ЛС] 

hateindex

Лоцман

Пост 16-Окт-2016 01:33 (спустя 10 дней)

[Q] 

Спасибо!Люблю этот сериал!
[Профиль]  [ЛС] 

kugesan ®

56676

Пост 19-Окт-2016 19:44 (спустя 3 дня)

[Q] 

Приятного просмотра!!!

_________________

В мире две бесконечности: вселенная и человеческая глупость - Альберт Эйнштен
«Можно вытащить человека из грязи, но нельзя вытащить грязь из человека»!
[Профиль]  [ЛС] 

jofrei53

Корсар

Пост 19-Окт-2016 20:26 (спустя 41 минута)

[Q] 

Спасибо! Гостем давай…ГОСТЕМ! Лови бочку
[Профиль]  [ЛС] 

Navigator1

Шкипер

Пост 19-Окт-2016 21:58 (спустя 1 час 31 минута)

[Q] 

нормальный сериал
[Профиль]  [ЛС] 

kugesan ®

56676

Пост 20-Окт-2016 20:00 (спустя 22 часа)

[Q] 

Приятного просмотра!!!

_________________

В мире две бесконечности: вселенная и человеческая глупость - Альберт Эйнштен
«Можно вытащить человека из грязи, но нельзя вытащить грязь из человека»!
[Профиль]  [ЛС] 
Показать сообщения:    
Ответить на тему

Текущее время: Сегодня 09:58

Часовой пояс: GMT + 4



Вы не можете начинать темы
Вы не можете отвечать на сообщения
Вы не можете редактировать свои сообщения
Вы не можете удалять свои сообщения
Вы не можете голосовать в опросах
Вы не можете прикреплять файлы к сообщениям
Вы не можете скачивать файлы

▼ Вниз