ML
     
  Уважаемый Гость!
Вы можете поддержать проект и зарегистрироваться у наших партнеров - онлайн-стратегия MyLands. При регистрации в игре Вы получите код, который сможете активировать после регистрации на pirat.ca и получить 1000 дублонов.

Ваш код:
0af2e2107bc9b5dd5ac2c09f9fc25e1a77c43887
 
     

Джонатан Стрендж и мистер Норрелл / Jonathan Strange & Mr Norrell / Сезон: 1 / Серии: 7 из 7 (Тоби Хэйнс / Toby Haynes) [2015 г., фэнтези, HDRip] MVO (LostFilm)

Ответить на тему
 
Автор
Сообщение

Пост 03-Сен-2016 02:15

[Q] 

somik

Легенда

-Джонатан Стрендж и мистер Норрелл / Jonathan Strange & Mr Norrell-- Производство: Великобритания, BBC America, Bell Media, Cité-Amérique, Cuba Pictures, Farmoor, Feel Films, Screen Yorkshire
Жанр: фэнтези
Год выпуска: 2015 г.
Продолжительность: 00:60:00
Мировая премьера: 17 мая 2015
Перевод: Профессиональный (многоголосый, закадровый) [LostFilm]
Режиссер: Тоби Хэйнс / Toby Haynes-В ролях: Марк Уоррен, Берти Карвел, Эдди Марсан, Шарлотта Райли, Элис Энглерт, Сэмюэл Уэст, Энцо Чиленти, Пол Кэй, Эдвард Хогг, Эрион Бакаре и др.-Описание: Магическая Англия эпохи Наполеоновских войн.
Англия, в которой волшебники состоят на тайной службе правительства и собственными способами защищают Британскую империю. Но, сражаясь с врагом «обычным» и используя свою силу как еще одно оружие в войне «людской», волшебники забыли об истинном, извечном недруге и противнике — Древнем Народе, помнящем, как он управлял некогда человеческими землями и душами. И теперь, когда магия стала слабеть и иссякать, из глубин запредельной древности возвращаются фэйри, ведомые своей Новой надеждой — подменышем Королем-Вороном...-
Качество видео: HDRip
Контейнер: AVI
Видео кодек: XviD
Аудио кодек: AC3
Видео: 720x400 (1.80:1), 25 fps, XviD build 73 ~1701 kbps avg, 0.24 bit/pixel
Аудио: 48 kHz, AC3 Dolby Digital, 2/0 (L,R) ch, ~192 kbps
Cубтитры: отсутствуют
Сериал основан на одноименном романе британской писательницы Сузанны Кларк, опубликованном в 2004 году.
Не перевелись еще волшебники среди кинематографистов.
Сериал основан на шикарной стилизации британской писательницы Сюзанны Кларк. Перед нами предстает альтернативна Британия 19 века. Все, показанное в «Джонатане Стрендже…», кажется настолько реальным, что, очнувшись от просмотра «взахлеб» всех серий, вообще не понимаешь, куда все делось, и почему дороги строят по-прежнему долго и нудно, а не наколдовывают экспромтом.
Игра актером в хороше смысле поражает. Так раздражает порой мистер Норрелл своей хомячьей повадкой и вечно оскорбленным лицом! На Ютьюбе посмотрела запись шоу с участием Берти Карвела и Эдди Марсан и была шокирована разительным отличием актера и сыгранного им персонажа. Вот это действительно талант и мастерство, настолько харизматичному мужчине превратиться в забитого и затаившего на весь мир обиду Норрелла! Очень органично выглядит и весь каст: это лица, запечатленные на картинах 19 века, в зарисовках, в набросках. Из женской части актерского состава особенно хочется выделить Элис Энглерт, воплотившую на экране зачарованную миссис Поул. Она действительно очень хороша и заслуживает похвалы. Играть медленно сходящую с ума молодую девушку, которая тем не менее, оказывается гораздо более здравомыслящей, чем все окружающие ее нормальные люди, нелегко. Это персонаж, который демонстрирует несколько эмоциональных «уровней», и каждый из них отлично удался Элис Энглерт.
Отдельное спасибо команде сериала за то, что он не перенасыщен спецэффектами. Все сделано настолько в меру, остается не ощущения сказки, а четкое чувство реальности происходящего.
Это единственный сериал, которому хочется поставить максимальную оценку. Говорят, что собираются снимать 2 сезон, который уже не будет опираться на сюжет романа (потому что роман закончился на первом сезоне, а продолжение автор писать не собирается). Надеюсь, что по уровню он будет хотя бы приближен к первому сезону, потому что превзойти его будет если не невозможно, то очень и очень сложно.
10 из 10
Общее
Полное имя : F:\ПОСЛЕДНИЕ ЗАГРУЗКИ\Jonathan Strange and Mr. Norrell.S01.2015.HDRip.LostFilm.[pirat.ca]\Jonathan Strange and Mr. Norrell.S01E01.2015.HDRip.LostFilm.avi
Формат : AVI
Формат/Информация : Audio Video Interleave
Размер файла : 804 Мбайт
Продолжительность : 59 м.
Общий поток : 1903 Кбит/сек
Название фильма : Jonathan Strange and Mr. Norrell.S01E01.2015.HDRip.LostFilm
Программа кодирования : VirtualDubMod 1.5.10.3 (build 2550/release)
Библиотека кодирования : VirtualDubMod build 2550/release
Видео
Идентификатор : 0
Формат : MPEG-4 Visual
Профиль формата : Advanced [email protected]
Параметр BVOP формата : 2
Параметр QPel формата : Нет
Параметр GMC формата : Без точки перехода
Параметр матрицы формата : Default (MPEG)
Идентификатор кодека : XVID
Идентификатор кодека/Подсказка : XviD
Продолжительность : 59 м.
Битрейт : 1702 Кбит/сек
Ширина : 720 пикселей
Высота : 400 пикселей
Соотношение сторон : 16:9
Частота кадров : 25,000 кадров/сек
Цветовое пространство : YUV
Субдискретизация насыщенности : 4:2:0
Битовая глубина : 8 бит
Тип развёртки : Прогрессивная
Метод сжатия : С потерями
Бит/(Пиксели*Кадры) : 0.236
Размер потока : 719 Мбайт (89%)
Библиотека кодирования : XviD 73
Аудио
Идентификатор : 1
Формат : AC-3
Формат/Информация : Audio Coding 3
Расширение режима : CM (complete main)
Параметр Endianness формата : Big
Идентификатор кодека : 2000
Продолжительность : 59 м.
Вид битрейта : Постоянный
Битрейт : 192 Кбит/сек
Каналы : 2 канала
Расположение каналов : Front: L R
Частота : 48,0 КГц
Частота кадров : 31,250 кадров/сек (1536 spf)
Метод сжатия : С потерями
Размер потока : 81,1 Мбайт (10%)
Выравнивание : Разделение по промежуткам
Продолжительность промежутка : 40 мс. (1,00 видеокадр)
Время предзагрузки промежутка : 500 мс.
Download / Скачать

Хотите скачать бесплатно? Зарегистрируйтесь на сайте (ссылка на регистрацию). Pirat.ca - самый быстрый торрент трекер в рунете!

Как скачивать  ·   Что такое торрент  ·   Рейтинг и ограничения

Показать сообщения:    
Ответить на тему

Текущее время: Сегодня 00:06

Часовой пояс: GMT + 4



Вы не можете начинать темы
Вы не можете отвечать на сообщения
Вы не можете редактировать свои сообщения
Вы не можете удалять свои сообщения
Вы не можете голосовать в опросах
Вы не можете прикреплять файлы к сообщениям
Вы не можете скачивать файлы

▼ Вниз