ML
     
  Уважаемый Гость!
Вы можете поддержать проект и зарегистрироваться у наших партнеров - онлайн-стратегия MyLands. При регистрации в игре Вы получите код, который сможете активировать после регистрации на pirat.ca и получить 1000 дублонов.

Ваш код:
a01a592a88af5f9996a6d1baec61b18a1769954d
 
     

Рейк / Rake / Сезон: 1 / Серии: 13 из 13 (Чери Ноулан / Cherie Nowlan, ...) [2014 г., драма, комедия, WEB-DLRip] MVO (AlexFilm) + Original (Eng)

Ответить на тему
 
Автор
Сообщение

Пост 03-Сен-2016 03:35

[Q] 

somik

Легенда

-Рейк / Rake-- Производство: США, Blow by Blow Productions, Essential Media & Entertainment, Fedora Entertainment, Sony Pictures Television
Жанр: драма, комедия
Год выпуска: 2014 г.
Продолжительность: 00:45:00
Мировая премьера: 23 января 2014
Перевод: Профессиональный (многоголосый, закадровый) [AlexFilm ]
Оригинальный аудиопоток: английский
Режиссер: Чери Ноулан / Cherie Nowlan, ...-В ролях: Грег Киннер, Миранда Отто, Джон Ортис, Некар Задеган, Бояна Новакович, Тара Саммерс, Йен Коллетти, Омар Дж. Дорси, Эмджей Энтони, Джэма Уильямсон, Кимберли Хоторн-Описание: Открытый и искренний, порой даже во вред себе, адвокат по уголовным делам берет на себя самые сложные случаи.-
Качество видео: WEB-DLRip
Контейнер: AVI
Видео кодек: XviD
Аудио кодек: MP3
Видео: 720x400 (1.80:1), 23.976 fps, XviD build 50 ~1415 kbps avg, 0.20 bit/pixel
Аудио: 48 kHz, MPEG Layer 3, 2 ch, ~128.00 kbps avg
Аудио #2: 48 kHz, MPEG Layer 3, 2 ch, ~128.00 kbps avg
Cубтитры: отсутствуют
Список серий
01. Serial Killer / Серийный убийца
02. A Close Shave / Гладкое бритьё
03. Cancer / Рак
04. Cannibal / Каннибал
05. Bigamist / Двоежёнец
06. Jury Tamperer / Давление на присяжных
07. Three Strikes / Три ошибки
08. Staple Holes / Дырки от степлера
09. Hey, Good Looking / Эй, красавчик
10. 50 Shades of Gay / 50 оттенков голубого
11. Remembrance of Taxis Past / Память о мимолётном прошлом
12. Man's Best Friend / Лучший друг человека
13. Mammophile / Маммофил (не показанный изначально каналом эпизод, логически должен быть под номером 6)
Этот односезонный сериал не стоит путать с австралийским.
«Над пропастью поржи»
Данный сериал — редкий представитель творения телевидения, который умудряется, являясь ремейком, выходить одновременно с оригиналом.
«Рейк» — это одноименное переложение австралийского сериала по сей день радующего своего зрителя — пока в столице кенгуру стартовал третий сезон, столица гамбургеров и кино предложила свою версию. Американский вариант имеет схожую основу и, если почитать отзывы критиков и зрителей, схожие стиль и атмосферу. Так на что же надеяться американцы?
После просмотра первой серии становится понятно — вся надежда на актерский состав! Никогда, никогда еще Грег Киннер не был столь хорош на экране — ни в образе Кеннеди, ни в любом другом, примеренном за годы карьеры. Его Киган Дин (в оригинале главный герой имеет другое имя) столь блистателен на экране, что можно было бы сорок минут смотреть, как он просто примеряет очки в роговой оправе. Но нет! Вместе с очаровательным персонажем нам дарят целый ворох проблем, которые каждый день ложатся на его плечи.
Вообще, слово «рейк» означает адвокатского слугу народа, который берется за самые гибельные дела. И этот сериал именно о таком человеке: будь то каннибал, будь то мамаша, выдающая здорового ребенка за больного раком — Киган Дин возьмется за дело и в девяти случаях из десяти окажется победителем.
Но не стоит недооценивать его удачу — ведь почти во всех казино города наш герой умудрился задолжать круглые суммы по причине неумения мешать азартные игры и крепкий алкоголь, в добавок к чему бывшая жена встретила нового мужчину, любимая проститутка ушла из бизнеса, а школьник-сын спит с учительницей!
Ну разве не прелестный зачин для не менее прекрасной истории, приправленной огромной толикой юмора, оптимистичной улыбки главного героя (не смотря на то, что еще утром кредитор выбил ему зуб за уклон от выплат) и огромный запас харизмы, на которой Грег Киннер выезжает как актер, а Киган Дин как его персонаж!
Адвокатское резюме: прекрасный аутентичный сериал, заслуживающий выхода на протяжении многих и многих лет, который будет, без сомнения, похоронен низким рейтингом любителей ситкомов и процедуралов, а также поборником справедливости и чести среди членов родительского комитета какого-нибудь штата…
Когда сериал закроют (а его, к сожалению, закроют) будем надеяться, что всесильные кабельные «HBO» или «Showtime» обратят внимание и не оставят сей шедевр юмора, диалогов и ситуаций на произвол забвения.
Ибо именно американская версия «Рейка» — лучшее, что происходило с жанором за последние лет пять-шесть…
10 из 10
Общее
Полное имя : F:\ПОСЛЕДНИЕ ЗАГРУЗКИ\Rake US - Season 1 (AlexFilm) WEB-DLRip\Rake.US.s01e01.Serial.Killer.WEB-DLRip.Rus.Eng.AlexFilm.avi
Формат : AVI
Формат/Информация : Audio Video Interleave
Размер файла : 550 Мбайт
Продолжительность : 45 м.
Общий поток : 1686 Кбит/сек
Название фильма : Rake (US) 1x01 Serial Killer @ AlexFilm
Программа кодирования : VirtualDubMod 1.5.10.2 (build 2542/release)
Видео
Идентификатор : 0
Формат : MPEG-4 Visual
Профиль формата : Advanced [email protected]
Параметр BVOP формата : 1
Параметр QPel формата : Нет
Параметр GMC формата : Без точки перехода
Параметр матрицы формата : Default (MPEG)
Идентификатор кодека : XVID
Идентификатор кодека/Подсказка : XviD
Продолжительность : 45 м.
Битрейт : 1416 Кбит/сек
Ширина : 720 пикселей
Высота : 400 пикселей
Соотношение сторон : 16:9
Частота кадров : 23,976 (23976/1000) кадра/сек
Цветовое пространство : YUV
Субдискретизация насыщенности : 4:2:0
Битовая глубина : 8 бит
Тип развёртки : Прогрессивная
Метод сжатия : С потерями
Бит/(Пиксели*Кадры) : 0.205
Размер потока : 462 Мбайт (84%)
Библиотека кодирования : XviD 1.2.1 (UTC 2008-12-04)
Аудио #1
Идентификатор : 1
Формат : MPEG Audio
Версия формата : Version 1
Профиль формата : Layer 3
Режим : Joint stereo
Расширение режима : MS Stereo
Идентификатор кодека : 55
Идентификатор кодека/Подсказка : MP3
Продолжительность : 45 м.
Вид битрейта : Постоянный
Битрейт : 128 Кбит/сек
Каналы : 2 канала
Частота : 48,0 КГц
Метод сжатия : С потерями
Размер потока : 41,8 Мбайт (8%)
Выравнивание : Соединение по промежуткам
Продолжительность промежутка : 42 мс. (1,00 видеокадр)
Время предзагрузки промежутка : 504 мс.
Заголовок : Russian (AlexFilm)
Аудио #2
Идентификатор : 2
Формат : MPEG Audio
Версия формата : Version 1
Профиль формата : Layer 3
Режим : Joint stereo
Расширение режима : MS Stereo
Идентификатор кодека : 55
Идентификатор кодека/Подсказка : MP3
Продолжительность : 45 м.
Вид битрейта : Постоянный
Битрейт : 128 Кбит/сек
Каналы : 2 канала
Частота : 48,0 КГц
Метод сжатия : С потерями
Размер потока : 41,8 Мбайт (8%)
Выравнивание : Соединение по промежуткам
Продолжительность промежутка : 42 мс. (1,00 видеокадр)
Время предзагрузки промежутка : 504 мс.
Заголовок : English
Download / Скачать

Хотите скачать бесплатно? Зарегистрируйтесь на сайте (ссылка на регистрацию). Pirat.ca - самый быстрый торрент трекер в рунете!

Как скачивать  ·   Что такое торрент  ·   Рейтинг и ограничения

Показать сообщения:    
Ответить на тему

Текущее время: Сегодня 09:45

Часовой пояс: GMT + 4



Вы не можете начинать темы
Вы не можете отвечать на сообщения
Вы не можете редактировать свои сообщения
Вы не можете удалять свои сообщения
Вы не можете голосовать в опросах
Вы не можете прикреплять файлы к сообщениям
Вы не можете скачивать файлы

▼ Вниз