ML
     
  Уважаемый Гость!
Вы можете поддержать проект и зарегистрироваться у наших партнеров - онлайн-стратегия MyLands. При регистрации в игре Вы получите код, который сможете активировать после регистрации на pirat.ca и получить 1000 дублонов.

Ваш код:
f612af22ea70acf5cbe90707ac5a076d215f8f7f
 
     

Рейвенсвуд / Ravenswood / Сезон: 1 / Серии: 10 из 10 (Рон Лагомарсино / Ron Lagomarsino, ...) [2013 г., ужасы, WEB-DLRip] MVO (Flux Team)

Ответить на тему
 
Автор
Сообщение

Пост 03-Сен-2016 04:05

[Q] 

somik

Легенда

-Рейвенсвуд / Ravenswood-- Производство: США, ABC Family
Жанр: ужасы
Год выпуска: 2013 г.
Продолжительность: 00:43:00
Мировая премьера: 22 октября 2013
Перевод: Любительский (многоголосый, закадровый) [Flux Team]
Режиссер: Рон Лагомарсино / Ron Lagomarsino, ...-В ролях: Николь Гэйл Андерсон, Тайлер Блэкберн, Мерритт Паттерсон, Бретт Дир, Бритни Олдфорд, Стивен Кебрал, Мег Фостер, Люк Бенвард, Хейли Лу Ричардсон, Генри Симмонс-Описание: Шоу сосредоточено на городе, который находится под проклятием многие поколения, оно было причиной загадочных смертей в этой области. Пять незнакомцев вдруг оказываются, связаны этим роковым проклятием и им нужно разобраться в шокирующей и страшной истории города, пока все не зашло слишком далеко для каждого из них.-
Качество видео: WEB-DLRip
Контейнер: AVI
Видео кодек: XviD
Аудио кодек: MP3
Видео: 720x400 (1.80:1), 23.976 fps, XviD build 50 ~1487 kbps avg, 0.22 bit/pixel
Аудио: 44.100 kHz, MPEG Layer 3, 2 ch, ~192.00 kbps avg
Cубтитры: отсутствуют
Список серий:
01. Pilot
02. Death and the Maiden
03. Believe
04. The Devil Has a Face
05. Scared to Death
06. Revival
07. Home Is Where the Heart Is (Seriously Check the Floorboards)
08. I'll Sleep When I'm Dead
09. Along Came a Spider
10. My Haunted Heart
Собака лает, но не кусает
в 2014ом году напала на след «Pretty little liars», затянуло хорошо, и вот, в межсезонье Калеб Риверс отправляется в Ravenswood, Ханна его отпускает… И получается новый сериал. Дух и стиль оставили такой же, как в «Милых обманщицах», часть актёров та же.
В сериале всего 10 серий, они связаны с «Pretty little liars», являются ответвлением сюжетной линии.
Смотреть будет интересно только, если до этого вы посмотрели где-то 3 или 4 сезона «Милых обманщиц», иначе будет не то.
В «Милых обманщицах» фигурирует название Рэйвенсвуд, и это странное место показывают в блеклых красках типа ретро.
Сериал позиционируется как ужасы-драма. Я бы не совсем с этим согласилась. Все 10 серий посмотрела в одиночестве, было жутко страшно, перед сном выключала. Страшно было от того, что «вот-вот сейчас…» «произойдет…» а особо страшных вещей и не происходит) Собака лаяла-лаяла, но не кусала. В «Милых обманщицах» было гораздо больше жутких моментов, когда можно подпрыгнуть) я бы отнесла сериал к мистике.
Не вызывает желания к повторному просмотру.
Десяти серий вполне хватило, продолжения не требуется. После окончания последней серии, Калеб снова в «Милых обманщицах»
7 из 10
Общее
Полное имя : F:\ПОСЛЕДНИЕ ЗАГРУЗКИ\Ravenswood.2013-2014.WEB-DLRip.(Flux-Team).[pirat.ca]\Ravenswood s01e01 (Flux-Team).avi
Формат : AVI
Формат/Информация : Audio Video Interleave
Размер файла : 516 Мбайт
Продолжительность : 42 м.
Общий поток : 1689 Кбит/сек
Программа кодирования : VirtualDubMod 1.5.10.3 (build 2550/release)
Библиотека кодирования : VirtualDubMod build 2550/release
Видео
Идентификатор : 0
Формат : MPEG-4 Visual
Профиль формата : Advanced [email protected]
Параметр BVOP формата : 2
Параметр QPel формата : Нет
Параметр GMC формата : Без точки перехода
Параметр матрицы формата : Default (MPEG)
Идентификатор кодека : XVID
Идентификатор кодека/Подсказка : XviD
Продолжительность : 42 м.
Битрейт : 1488 Кбит/сек
Ширина : 720 пикселей
Высота : 400 пикселей
Соотношение сторон : 16:9
Частота кадров : 23,976 (23976/1000) кадра/сек
Цветовое пространство : YUV
Субдискретизация насыщенности : 4:2:0
Битовая глубина : 8 бит
Тип развёртки : Прогрессивная
Метод сжатия : С потерями
Бит/(Пиксели*Кадры) : 0.215
Размер потока : 454 Мбайт (88%)
Библиотека кодирования : XviD 1.2.1 (UTC 2008-12-04)
Аудио
Идентификатор : 1
Формат : MPEG Audio
Версия формата : Version 1
Профиль формата : Layer 3
Идентификатор кодека : 55
Идентификатор кодека/Подсказка : MP3
Продолжительность : 42 м.
Вид битрейта : Постоянный
Битрейт : 192 Кбит/сек
Каналы : 2 канала
Частота : 44,1 КГц
Метод сжатия : С потерями
Размер потока : 58,6 Мбайт (11%)
Выравнивание : Разделение по промежуткам
Продолжительность промежутка : 42 мс. (1,00 видеокадр)
Время предзагрузки промежутка : 500 мс.
Download / Скачать

Хотите скачать бесплатно? Зарегистрируйтесь на сайте (ссылка на регистрацию). Pirat.ca - самый быстрый торрент трекер в рунете!

Как скачивать  ·   Что такое торрент  ·   Рейтинг и ограничения

Показать сообщения:    
Ответить на тему

Текущее время: Сегодня 00:28

Часовой пояс: GMT + 4



Вы не можете начинать темы
Вы не можете отвечать на сообщения
Вы не можете редактировать свои сообщения
Вы не можете удалять свои сообщения
Вы не можете голосовать в опросах
Вы не можете прикреплять файлы к сообщениям
Вы не можете скачивать файлы

▼ Вниз