ML
     
  Уважаемый Гость!
Вы можете поддержать проект и зарегистрироваться у наших партнеров - онлайн-стратегия MyLands. При регистрации в игре Вы получите код, который сможете активировать после регистрации на pirat.ca и получить 1000 дублонов.

Ваш код:
fcd618d94adc1456bccbde5047c9cd0930e4ae4d
 
     

Добрая ведьма / Good Witch / Сезон: 1 / Серии: 10 из 10 (Крэйг Прайс / Craig Pryce, ...) [2015 г., драма, фэнтези, комедия, семейный, WEB-DLRip] VO (Мария Аскольта)

Ответить на тему
 
Автор
Сообщение

Пост 03-Сен-2016 16:19

[Q] 

somik

Легенда

-Добрая ведьма / Good Witch-- Производство: США, Nexus Canada
Жанр: драма, фэнтези, комедия, семейный
Год выпуска: 2015 г.
Продолжительность: 00:46:00
Мировая премьера: 28 февраля 2015
Перевод: Любительский (одноголосый, закадровый) [Мария Аскольта]
Режиссер: Крэйг Прайс / Craig Pryce, ...-В ролях: Кэтрин Белл (Catherine Bell) - Кэсси Найтингейл (Cassie Nightingale), Бэйли Мэдисон (Bailee Madison) - Глэйс Рассел (Grace Russell), Джеймс Дентон (James Denton) - Доктор Сэм Рэдфорд (Dr. Sam Radford), Кэтрин Дишер (Catherine Disher) - Марта Тинсдейл (Martha Tinsdale), Энтони Лемке (Anthony Lemke) - Райан Эллиот (Ryan Elliott), Рис Метью Бонд (Rhys Matthew Bond) - Ник Рэдфорд (Nick Radford), Дэн Джиннотт (Dan Jeannotte) - Брэндон Рассел (Brandon Russell), Ханна Эндикотт Дуглас (Hannah Endicott-Douglas) - Лори Рассел (Lori Russell), Ной Кэппи (Noah Cappe) - Дерек (Derek)...-Описание: "Добрая ведьма" рассказывает зрителям новую волшебную историю о Кэсси Найтингейл. Когда доктор Сэм Рэдфорт и его сын Ник переезжают в дом по соседству с "Серым домом", магический дуэт матери и дочери очаровывает их.-
Качество видео: WEB-DLRip
Контейнер: AVI
Видео кодек: XviD
Аудио кодек: AC3
Видео: 720x400 (1.80:1), 23.976 fps, XviD MPEG-4 ~2272 kbps avg, 0.33 bit/pixel
Аудио: 48 kHz, AC3 Dolby Digital, 2/0 (L,R) ch, ~192 kbps
Cубтитры: отсутствуют
Общее
Полное имя : F:\ПОСЛЕДНИЕ ЗАГРУЗКИ\Good Witch.S01.2015.WEB-DL.[pirat.ca]\Добрая ведьма. Сериал.2015.1серия.WEB-DL.avi
Формат : AVI
Формат/Информация : Audio Video Interleave
Размер файла : 745 Мбайт
Продолжительность : 42 м.
Общий поток : 2474 Кбит/сек
Название фильма : Добрая ведьма. Сериал.2015.1серия.WEB-DL
Программа кодирования : VirtualDubMod 1.5.10.3 | www.virtualdub-fr.org || (build 2550/release)
Видео
Идентификатор : 0
Формат : MPEG-4 Visual
Профиль формата : Advanced [email protected]
Параметр BVOP формата : 2
Параметр QPel формата : Нет
Параметр GMC формата : Без точки перехода
Параметр матрицы формата : Default (H.263)
Режим смешивания : Сжатый битовый поток
Идентификатор кодека : XVID
Идентификатор кодека/Подсказка : XviD
Продолжительность : 42 м.
Битрейт : 2272 Кбит/сек
Ширина : 720 пикселей
Высота : 400 пикселей
Соотношение сторон : 16:9
Частота кадров : 23,976 (23976/1000) кадра/сек
Цветовое пространство : YUV
Субдискретизация насыщенности : 4:2:0
Битовая глубина : 8 бит
Тип развёртки : Прогрессивная
Метод сжатия : С потерями
Бит/(Пиксели*Кадры) : 0.329
Размер потока : 684 Мбайт (92%)
Библиотека кодирования : XviD 1.2.1 (UTC 2008-12-04)
Аудио
Идентификатор : 1
Формат : AC-3
Формат/Информация : Audio Coding 3
Расширение режима : CM (complete main)
Параметр Endianness формата : Big
Идентификатор кодека : 2000
Продолжительность : 42 м.
Вид битрейта : Постоянный
Битрейт : 192 Кбит/сек
Каналы : 2 канала
Расположение каналов : Front: L R
Частота : 48,0 КГц
Частота кадров : 31,250 кадров/сек (1536 spf)
Метод сжатия : С потерями
Размер потока : 57,8 Мбайт (8%)
Выравнивание : Разделение по промежуткам
Продолжительность промежутка : 42 мс. (1,00 видеокадр)
Время предзагрузки промежутка : 500 мс.
Download / Скачать

Хотите скачать бесплатно? Зарегистрируйтесь на сайте (ссылка на регистрацию). Pirat.ca - самый быстрый торрент трекер в рунете!

Как скачивать  ·   Что такое торрент  ·   Рейтинг и ограничения

Показать сообщения:    
Ответить на тему

Текущее время: Сегодня 12:50

Часовой пояс: GMT + 4



Вы не можете начинать темы
Вы не можете отвечать на сообщения
Вы не можете редактировать свои сообщения
Вы не можете удалять свои сообщения
Вы не можете голосовать в опросах
Вы не можете прикреплять файлы к сообщениям
Вы не можете скачивать файлы

▼ Вниз