ML
     
  Уважаемый Гость!
Вы можете поддержать проект и зарегистрироваться у наших партнеров - онлайн-стратегия MyLands. При регистрации в игре Вы получите код, который сможете активировать после регистрации на pirat.ca и получить 1000 дублонов.

Ваш код:
6f9ab67d502902cc72a06c406977ddb589b7f39d
 
     

Миссия ясновидения / 1-800-Missing / Сезон: 1 / Серии: 18 из 18 (Майк Рол / Mike Rohl, ...) [2003 г., детектив, SATRip] MVO (Русский дубляж по заказу СТС)

Ответить на тему
 
Автор
Сообщение

Пост 03-Сен-2016 17:13

[Q] 

somik

Легенда

-Миссия ясновидения / 1-800-Missing-- Производство: США, Канада, Lions Gate Television, ...
Жанр: детектив
Год выпуска: 2003 г.
Продолжительность: 00:42:00
Мировая премьера: 2 августа 2003
Российская премьера: 24 августа 2006
Перевод: Профессиональный (многоголосый, закадровый) [Русский дубляж по заказу СТС]
Режиссер: Майк Рол / Mike Rohl, ...-В ролях: Gloria Reuben, Caterina Scorsone, Dean McDermott, Justina Machado-Описание: Сериал рассказывает о Джесс Мастриани, молодой девушке, которая после удара молнии начинает видеть сны, в которых ей являются без вести пропавшие люди. Вскоре после того, как ФБР узнает о сверхестественных способностях Джесс, ее нанимают в особый отдел, где она помогает агентам в поиске исчезнувших людей.-
Качество видео: SATRip
Контейнер: AVI
Видео кодек: XviD
Аудио кодек: MP3
Видео: 640x480 (1.33:1), 25 fps, XviD build 9 ~1034 kbps avg, 0.13 bit/pixel
Аудио: 48 kHz, MPEG Layer 3, 2 ch, ~128.00 kbps avg
Cубтитры: отсутствуют
Общее
Полное имя : F:\ПОСЛЕДНИЕ ЗАГРУЗКИ\Миссия ясновидения (1-800-Missing)\1-800-Missing.s01.SATRip.Rus.[pirat.ca]\1-800-Missing.s01e01.SATRip.[pirat.ca].avi
Формат : AVI
Формат/Информация : Audio Video Interleave
Размер файла : 352 Мбайт
Продолжительность : 41 м.
Общий поток : 1172 Кбит/сек
Программа кодирования : VirtualDubMod 1.5.10.1 (build 2439/release)
Библиотека кодирования : VirtualDub build 32842/release
Видео
Идентификатор : 0
Формат : MPEG-4 Visual
Профиль формата : [email protected]
Параметр BVOP формата : Нет
Параметр QPel формата : Нет
Параметр GMC формата : Без точки перехода
Параметр матрицы формата : Default (H.263)
Идентификатор кодека : XVID
Идентификатор кодека/Подсказка : XviD
Продолжительность : 41 м.
Битрейт : 1034 Кбит/сек
Ширина : 640 пикселей
Высота : 480 пикселей
Соотношение сторон : 4:3
Частота кадров : 25,000 кадров/сек
Цветовое пространство : YUV
Субдискретизация насыщенности : 4:2:0
Битовая глубина : 8 бит
Тип развёртки : Прогрессивная
Метод сжатия : С потерями
Бит/(Пиксели*Кадры) : 0.135
Размер потока : 311 Мбайт (88%)
Библиотека кодирования : XviD 0.0.09 (UTC 2003-03-25)
Аудио
Идентификатор : 1
Формат : MPEG Audio
Версия формата : Version 1
Профиль формата : Layer 3
Режим : Joint stereo
Расширение режима : MS Stereo
Идентификатор кодека : 55
Идентификатор кодека/Подсказка : MP3
Продолжительность : 41 м.
Вид битрейта : Постоянный
Битрейт : 128 Кбит/сек
Каналы : 2 канала
Частота : 48,0 КГц
Метод сжатия : С потерями
Размер потока : 38,4 Мбайт (11%)
Выравнивание : Разделение по промежуткам
Продолжительность промежутка : 40 мс. (1,00 видеокадр)
Время предзагрузки промежутка : 500 мс.
Download / Скачать

Хотите скачать бесплатно? Зарегистрируйтесь на сайте (ссылка на регистрацию). Pirat.ca - самый быстрый торрент трекер в рунете!

Как скачивать  ·   Что такое торрент  ·   Рейтинг и ограничения

balamutych 8

Шкипер

Пост 04-Сен-2016 02:07 (спустя 8 часов)

[Q] 

Спасибо заценим
[Профиль]  [ЛС] 
Показать сообщения:    
Ответить на тему

Текущее время: Сегодня 16:31

Часовой пояс: GMT + 4



Вы не можете начинать темы
Вы не можете отвечать на сообщения
Вы не можете редактировать свои сообщения
Вы не можете удалять свои сообщения
Вы не можете голосовать в опросах
Вы не можете прикреплять файлы к сообщениям
Вы не можете скачивать файлы

▼ Вниз