ML
     
  Уважаемый Гость!
Вы можете поддержать проект и зарегистрироваться у наших партнеров - онлайн-стратегия MyLands. При регистрации в игре Вы получите код, который сможете активировать после регистрации на pirat.ca и получить 1000 дублонов.

Ваш код:
0af2e2107bc9b5dd5ac2c09f9fc25e1a77c43887
 
     

Мотив / Motive / Сезон: 1 / Серии: 13 из 13 (Энди Микита / Andy Mikita, ...) [2013 г., триллер, драма, криминал, детектив, HDTVRip] VO (Apofys)

Ответить на тему
 
Автор
Сообщение

Пост 03-Сен-2016 17:22

[Q] 

somik

Легенда

-Мотив / Motive-- Производство: Канада
Жанр: триллер, драма, криминал, детектив
Год выпуска: 2013 г.
Продолжительность: 00:42:00
Мировая премьера: 3 февраля 2013
Перевод: Любительский (одноголосый, закадровый) [Apofys]
Режиссер: Энди Микита Andy Mikita, ...-В ролях: Кристин Леман, Луис Феррейра, Брендан Пенни, Роджер Р. Кросс, Лорен Холли, Кэмерон Брайт-Описание: Энергичный ванкуверский детектив отдела убийств Энджи Флинн, соединяя кусочки головоломки, руководствуется не вопросом «Кто это сделал?», а вопросом «Зачем?». Что общего у жертвы и убийцы? Каков мотив?-
Качество видео: HDTVRip
Контейнер: AVI
Видео кодек: XviD
Аудио кодек: MP3
Видео: 640x360 (1.78:1), 23.976 fps, XviD build 64 ~999 kbps avg, 0.18 bit/pixel
Аудио: 44.100 kHz, MPEG Layer 3, 2 ch, ~192.00 kbps avg
Cубтитры: отсутствуют
Хотя североамериканская телепродукция ассоциируется у нас с США, в Канаде тоже снимают сериалы! Делают их в условиях «ноу старз, ноу мани», так что канадцам приходится выдумывать оригинальные сюжетные подходы, чтобы хоть как-то конкурировать с коллегами с юга. Не всегда получается, но «Мотив» можно назвать вполне удачным примером нетривиального подхода к устоявшемуся жанру.
Перед нами полицейский процедурал. В этом формате по всему миру снято уже просто чудовищное количество проектов. Но в «Мотиве» использована фишка, которой лично я раньше не встречал. В самом начале каждого эпизода нам показывают Жертву и Убийцу, далее идет уже сцена прибытия шустрых детективов на место преступления и пока они пытаются раскрыть очередное дело, интерес у зрителя вызывает не столько само расследование, сколько вопрос, почему Убийца совершил это. И скажем прямо, иной раз сценаристам удается нас удивить…
В остальном, это типичный образчик жанра. Расследования, как и бывает в таких проектах, зачастую слишком уж скорые и простые (а как иначе уложить его в 42 минуты?), личные проблемы сквозных героев обрисованы по минимуму, так что начать просмотр вы можете с любой серии любого сезона и не мучиться от непонимания. Главная героиня некрасивая, но умненькая, да и чувства юмора не лишена, остальные ее оттеняют. Словом, определенный уровень хорошего ремесленного качества присутствует. Ну а основной минус сериала обусловлен его оригинальным сюжетным подходом — постоянный зачин с Жертвой и Убийцей может вам просто поднадоесть.
Одним словом, это не тот проект, который обязателен к просмотру. Но попробовать на вкус его вполне можно и без особого риска.
Общее
Полное имя : F:\ПОСЛЕДНИЕ ЗАГРУЗКИ\Motive.S01.2013.[pirat.ca]\Мотив1 серия_01.avi
Формат : AVI
Формат/Информация : Audio Video Interleave
Размер файла : 365 Мбайт
Продолжительность : 42 м.
Общий поток : 1201 Кбит/сек
Библиотека кодирования : VirtualDub build 34753/release
Видео
Идентификатор : 0
Формат : MPEG-4 Visual
Профиль формата : Advanced [email protected]
Параметр BVOP формата : 2
Параметр QPel формата : Нет
Параметр GMC формата : Без точки перехода
Параметр матрицы формата : Default (H.263)
Идентификатор кодека : XVID
Идентификатор кодека/Подсказка : XviD
Продолжительность : 42 м.
Битрейт : 999 Кбит/сек
Ширина : 640 пикселей
Высота : 360 пикселей
Соотношение сторон : 16:9
Частота кадров : 23,976 (23976/1000) кадра/сек
Цветовое пространство : YUV
Субдискретизация насыщенности : 4:2:0
Битовая глубина : 8 бит
Тип развёртки : Прогрессивная
Метод сжатия : С потерями
Бит/(Пиксели*Кадры) : 0.181
Размер потока : 304 Мбайт (83%)
Библиотека кодирования : XviD 64
Аудио
Идентификатор : 1
Формат : MPEG Audio
Версия формата : Version 1
Профиль формата : Layer 3
Режим : Joint stereo
Расширение режима : MS Stereo
Идентификатор кодека : 55
Идентификатор кодека/Подсказка : MP3
Продолжительность : 42 м.
Вид битрейта : Постоянный
Битрейт : 192 Кбит/сек
Каналы : 2 канала
Частота : 44,1 КГц
Метод сжатия : С потерями
Размер потока : 58,4 Мбайт (16%)
Выравнивание : Разделение по промежуткам
Продолжительность промежутка : 42 мс. (1,00 видеокадр)
Время предзагрузки промежутка : 500 мс.
Download / Скачать

Хотите скачать бесплатно? Зарегистрируйтесь на сайте (ссылка на регистрацию). Pirat.ca - самый быстрый торрент трекер в рунете!

Как скачивать  ·   Что такое торрент  ·   Рейтинг и ограничения

Показать сообщения:    
Ответить на тему

Текущее время: Сегодня 00:08

Часовой пояс: GMT + 4



Вы не можете начинать темы
Вы не можете отвечать на сообщения
Вы не можете редактировать свои сообщения
Вы не можете удалять свои сообщения
Вы не можете голосовать в опросах
Вы не можете прикреплять файлы к сообщениям
Вы не можете скачивать файлы

▼ Вниз