ML
     
  Уважаемый Гость!
Вы можете поддержать проект и зарегистрироваться у наших партнеров - онлайн-стратегия MyLands. При регистрации в игре Вы получите код, который сможете активировать после регистрации на pirat.ca и получить 1000 дублонов.

Ваш код:
0af2e2107bc9b5dd5ac2c09f9fc25e1a77c43887
 
     

Охота на оленей / Stag / Мини-сериал / Серии: 1-3 (3) (Джим Филд Смит / Jim Field Smith) [2016 г., комедия, детектив, HDTVRip, 720p] VO (А. Харченко) + Original (Eng)

Ответить на тему
 
Автор
Сообщение

Пост 03-Сен-2016 22:06

[Q] 

TERMOS

Легенда

-Охота на оленей / Stag
«One hell of a weekend»
(Мини-сериал)
-- Производство: Великобритания
Жанр: комедия, детектив
Год выпуска: 2016 г.
Продолжительность: 3x ~01:00:00
Перевод: Любительский (одноголосый, закадровый) [А. Харченко]
Оригинальный аудиопоток: английский
Режиссер: Джим Филд Смит / Jim Field Smith-В ролях: Стивен Кэмпбелл Мур, Джей Джей Филд, Джим Хоуик, Амит Шах, Аманда Аббингтон, Джеймс Космо, Том Дэвис, Джилли Гилкрист, Руфус Джонс, Шэрон Руни-Описание: Ангус Джоннерс приглашает своих друзей провести выходные в глухом шотландском лесу, охотясь на оленей. Когда веселая компания приезжает в дикие края, все вдруг меняется, и из охотников они превращаются в жертв. Один за другим мужчины погибают от рук таинственного, невидимого убийцы. Кто заманил их сюда? Кто желает им зла и за что?
- - -Качество видео: HDTVRip
Контейнер: MKV
Стандарт разрешения: 720p
Видео кодек: H.264/AVC
Аудио кодек: AC3
Видео: 1280x720 at 25.000 fps, ~2500 kbps avg
Аудио: Russian: 48 kHz/16-bit, АС3, 2.0 ch ~ 192 kbps avg |Одноголосый закадровый, А. Харченко|
Аудио #2: English: 48 kHz/16-bit, АС3, 2.0 ch ~ 192 kbps avg
Cубтитры: отсутствуют
Звуковая дорожка # 1 (Харченко) получена путем наложения чистого голоса на оригинальную звуковую дорогу
Код:
Format                      : Matroska
Format version              : Version 4 / Version 2
File size                   : 1.19 GiB
Duration                    : 58mn 0s
Overall bit rate            : 2 925 Kbps
Encoded date                : UTC 2016-09-03 16:51:34
Writing application         : mkvmerge v6.0.0 ('Coming Up For Air') built on Jan 20 2013 09:52:00
Writing library             : libebml v1.3.0 + libmatroska v1.4.0
_STATISTICS_WRITING_APP     : mkvmerge v7.3.0 ('Nouages') 64bit built on Oct 22 2014 18:53:34
_STATISTICS_WRITING_DATE_UT : 2016-08-27 14:04:25
_STATISTICS_TAGS            : BPS DURATION NUMBER_OF_FRAMES NUMBER_OF_BYTES
DURATION                    : 00:58:11.456000000
NUMBER_OF_FRAMES            : 109108
NUMBER_OF_BYTES             : 83794944
Video
ID                          : 1
Format                      : AVC
Format/Info                 : Advanced Video Codec
Format profile              : [email protected]
Format settings, CABAC      : Yes
Format settings, ReFrames   : 5 frames
Codec ID                    : V_MPEG4/ISO/AVC
Duration                    : 58mn 0s
Bit rate                    : 2 483 Kbps
Width                       : 1 280 pixels
Height                      : 720 pixels
Display aspect ratio        : 16:9
Frame rate mode             : Constant
Frame rate                  : 25.000 fps
Color space                 : YUV
Chroma subsampling          : 4:2:0
Bit depth                   : 8 bits
Scan type                   : Progressive
Bits/(Pixel*Frame)          : 0.108
Stream size                 : 1.01 GiB (85%)
Default                     : Yes
Forced                      : No
Matrix coefficients         : BT.709
Color range                 : Limited
Audio #1
ID                          : 2
Format                      : AC-3
Format/Info                 : Audio Coding 3
Mode extension              : CM (complete main)
Format settings, Endianness : Big
Codec ID                    : A_AC3
Duration                    : 58mn 0s
Bit rate mode               : Constant
Bit rate                    : 192 Kbps
Channel(s)                  : 2 channels
Channel positions           : Front: L R
Sampling rate               : 48.0 KHz
Bit depth                   : 16 bits
Compression mode            : Lossy
Delay relative to video     : 16ms
Stream size                 : 79.7 MiB (7%)
Language                    : Russian
Default                     : Yes
Forced                      : No
_STATISTICS_WRITING_APP     : mkvmerge v7.3.0 ('Nouages') 64bit built on Oct 22 2014 18:53:34
_STATISTICS_WRITING_DATE_UT : 2016-08-27 14:04:25
_STATISTICS_TAGS            : BPS DURATION NUMBER_OF_FRAMES NUMBER_OF_BYTES
DURATION                    : 00:58:11.424000000
NUMBER_OF_FRAMES            : 109107
NUMBER_OF_BYTES             : 83794176
Audio #2
ID                          : 3
Format                      : AC-3
Format/Info                 : Audio Coding 3
Mode extension              : CM (complete main)
Format settings, Endianness : Big
Codec ID                    : A_AC3
Duration                    : 58mn 0s
Bit rate mode               : Constant
Bit rate                    : 192 Kbps
Channel(s)                  : 2 channels
Channel positions           : Front: L R
Sampling rate               : 48.0 KHz
Bit depth                   : 16 bits
Compression mode            : Lossy
Stream size                 : 79.7 MiB (7%)
Language                    : English
Default                     : No
Forced                      : No
Download / Скачать

Хотите скачать бесплатно? Зарегистрируйтесь на сайте (ссылка на регистрацию). Pirat.ca - самый быстрый торрент трекер в рунете!

Как скачивать  ·   Что такое торрент  ·   Рейтинг и ограничения

TERMOS ®

Легенда

12045

Пост 03-Сен-2016 22:11 (спустя 4 минуты)

[Q] 

Комического в сериале как-то не заметил, а вот как детектив вполне ничего. Рекомендую! ay

_________________
[Профиль]  [ЛС] 
Показать сообщения:    
Ответить на тему

Текущее время: Сегодня 00:09

Часовой пояс: GMT + 4



Вы не можете начинать темы
Вы не можете отвечать на сообщения
Вы не можете редактировать свои сообщения
Вы не можете удалять свои сообщения
Вы не можете голосовать в опросах
Вы не можете прикреплять файлы к сообщениям
Вы не можете скачивать файлы

▼ Вниз