ML
     
  Уважаемый Гость!
Вы можете поддержать проект и зарегистрироваться у наших партнеров - онлайн-стратегия MyLands. При регистрации в игре Вы получите код, который сможете активировать после регистрации на pirat.ca и получить 1000 дублонов.

Ваш код:
5f4e94775bc0501caff7b254e79328d304c817d9
 
     

Люди Альфа / Alphas / Сезон: 1-2 / Серии: 24 из 24 (Ник Копус / Nick Copus, ...) [2011 г., фантастика, боевик, триллер, WEB-DLRip] MVO [+ Original (Eng)] (LostFilm)

Ответить на тему
 
Автор
Сообщение

Пост 04-Сен-2016 03:41

[Q] 

somik

Легенда

-Люди Альфа / Alphas-- Производство: США, BermanBraun, Universal Cable Productions
Жанр: фантастика, боевик, триллер
Год выпуска: 2011 г.
Продолжительность: 00:42:00
Мировая премьера: 11 июля 2011
Перевод: Профессиональный (многоголосый, закадровый) [LostFilm]
Оригинальный аудиопоток: английский
Режиссер: Ник Копус / Nick Copus, ...-В ролях: Дэвид Стрэтэйрн, Райан Картрайт, Уоррен Кристи, Азита Ганизада, Лаура Меннелл, Мэлик Йоба, Махершалалхашбаз Али, Валери Крус, Кэтлин Гати, Джейн Моффат, Рэйчел Кроуфорд, Лиэн Балабан, Дэниэл Кэш, Каллум Кит Ренни, Ивэн Сабба, Скотт Ямамура, Джефф Сеймур, Джо Пинг, Карлос Гонзалес-Вио, Миранда Эдвардс, Мэтт Бойс, Саад Сиддикуи, Луиз Николь, Пол Сун-Хюнг Ли, Глен Кросс-Описание: Эксперт минобороны Ли Розен, специализируется на необычных явлениях, и он лидер команды из пяти человек с мозговыми аномалиями. По отдельности члены группы мало отличаются от обычных людей, но вместе способны демонстрировать чудеса умственной и физической деятельности.-
Качество видео: WEB-DLRip
Контейнер: AVI
Видео кодек: XviD
Аудио кодек: MP3
Видео: 720x400 (16:9), 23.976 fps, ~1350 kbps, ~0.195 bit/pixel
Аудио: 48 kHz, 2 ch, ~128 kbps |LostFilm|
Аудио #2: 48 kHz, 2 ch, ~128 kbps |Original|
Cубтитры: отсутствуют
«Люди Альфа: Стоит ли смотреть?»
С самого детства я люблю фантастику, особенно научную или про супер героев. Но этот сериал что то среднее между тем и другим, в нем есть сверх-люди и плюс к этому это еще и объясняется по научному (в какой то степени).
«Люди Альфа» или «Псионики» — об этом сериале я еще услышал в прошлом году но как то не решился его посмотреть, так как думал что это очередной малобюджетный шлак от Syfy (Так вышло что после закрытия моих любимых сериалов как SG-1, SGA, SGU я относился к каналу плохо) Сериал я посмотрел за 2 дня (1 и 2 сезон) Но в этот раз вопреки моим ожидание сериал вышел довольно таки не плохим, хорошая задумка, средний сюжет, хорошие актеры в частности Дэвид Стрэтэйрн (ветеран кинематографа более 100 фильмов) и Уоррен Кристи (очень похож на главного героя игры-трилогии Mass Effect) что меня конечно радует так как это моя любимая игра и очаровательная Лаура Меннелл (ну с ней все понятно) которая в паре с Уорреном смотрелись не плохо, но романтическая линия пожалуй является самым слабым звеном этого проекта. Но если быть точным в первом сезоне романтика кое-как выражена, что не могу сказать о втором(но это сугубо мое мнение). Боевые сцены сделаны довольно хорошо, главные герои и и прыгают, и бегают по стенам, и даже их ломают что смотрится довольно красиво. Так же хочу отметить приятные саундтреки! Вообщем ответ на вопрос «Стоит ли смотреть?». — Я думаю что стоит! Я например не жалею о по траченых часах. И думаю что хотя бы ознакомится с первыми сериями стоит, а дальше уже вам решать.
8 из 10
Общее
Полное имя : F:\ПОСЛЕДНИЕ ЗАГРУЗКИ\Люди Альфа\Alphas.s01.LostFilm.[pirat.ca]\Alphas.s01e01.LostFilm.avi
Формат : AVI
Формат/Информация : Audio Video Interleave
Размер файла : 800 Мбайт
Продолжительность : 1 ч. 4 м.
Общий поток : 1740 Кбит/сек
Программа кодирования : VirtualDubMod 1.5.10.2 (build 2540/release)
Библиотека кодирования : VirtualDubMod build 2540/release
Видео
Идентификатор : 0
Формат : MPEG-4 Visual
Профиль формата : Advanced [email protected]
Параметр BVOP формата : 1
Параметр QPel формата : Нет
Параметр GMC формата : Без точки перехода
Параметр матрицы формата : Выборочная
Идентификатор кодека : XVID
Идентификатор кодека/Подсказка : XviD
Продолжительность : 1 ч. 4 м.
Битрейт : 1470 Кбит/сек
Ширина : 720 пикселей
Высота : 400 пикселей
Соотношение сторон : 16:9
Частота кадров : 23,976 (23976/1000) кадра/сек
Цветовое пространство : YUV
Субдискретизация насыщенности : 4:2:0
Битовая глубина : 8 бит
Тип развёртки : Прогрессивная
Метод сжатия : С потерями
Бит/(Пиксели*Кадры) : 0.213
Размер потока : 675 Мбайт (84%)
Библиотека кодирования : XviD 65
Аудио #1
Идентификатор : 1
Формат : MPEG Audio
Версия формата : Version 1
Профиль формата : Layer 3
Режим : Joint stereo
Расширение режима : MS Stereo
Идентификатор кодека : 55
Идентификатор кодека/Подсказка : MP3
Продолжительность : 1 ч. 4 м.
Вид битрейта : Постоянный
Битрейт : 128 Кбит/сек
Каналы : 2 канала
Частота : 48,0 КГц
Метод сжатия : С потерями
Размер потока : 58,8 Мбайт (7%)
Выравнивание : Соединение по промежуткам
Продолжительность промежутка : 42 мс. (1,00 видеокадр)
Время предзагрузки промежутка : 504 мс.
Библиотека кодирования : LAME3.99r
Настройки программы : -m j -V 4 -q 2 -lowpass 17 -b 128
Аудио #2
Идентификатор : 2
Формат : MPEG Audio
Версия формата : Version 1
Профиль формата : Layer 3
Режим : Joint stereo
Расширение режима : MS Stereo
Идентификатор кодека : 55
Идентификатор кодека/Подсказка : MP3
Продолжительность : 1 ч. 4 м.
Вид битрейта : Постоянный
Битрейт : 128 Кбит/сек
Каналы : 2 канала
Частота : 48,0 КГц
Метод сжатия : С потерями
Размер потока : 58,8 Мбайт (7%)
Выравнивание : Соединение по промежуткам
Продолжительность промежутка : 42 мс. (1,00 видеокадр)
Время предзагрузки промежутка : 504 мс.
Библиотека кодирования : LAME3.99r
Настройки программы : -m j -V 4 -q 2 -lowpass 17 -b 128
Download / Скачать

Хотите скачать бесплатно? Зарегистрируйтесь на сайте (ссылка на регистрацию). Pirat.ca - самый быстрый торрент трекер в рунете!

Как скачивать  ·   Что такое торрент  ·   Рейтинг и ограничения

Показать сообщения:    
Ответить на тему

Текущее время: Сегодня 15:31

Часовой пояс: GMT + 4



Вы не можете начинать темы
Вы не можете отвечать на сообщения
Вы не можете редактировать свои сообщения
Вы не можете удалять свои сообщения
Вы не можете голосовать в опросах
Вы не можете прикреплять файлы к сообщениям
Вы не можете скачивать файлы

▼ Вниз