ML
     
  Уважаемый Гость!
Вы можете поддержать проект и зарегистрироваться у наших партнеров - онлайн-стратегия MyLands. При регистрации в игре Вы получите код, который сможете активировать после регистрации на pirat.ca и получить 1000 дублонов.

Ваш код:
fcd618d94adc1456bccbde5047c9cd0930e4ae4d
 
     

Возвращённые / The Returned / Сезон: 1 / Серии: 10 из 10 (Дженнифер Гетцингер / Jennifer Getzinger, ...) [2015 г., ужасы, HD TVRIP-AVC] MVO (Jaskier)

Ответить на тему
 
Автор
Сообщение

Пост 04-Сен-2016 04:18

[Q] 

somik

Легенда

-Возвращённые / Вернувшиеся / The Returned-- Производство: США, A&E Network, Fremantle Media North America, Haut et Court
Жанр: ужасы
Год выпуска: 2015 г.
Продолжительность: 00:42:00
Мировая премьера: 9 марта 2015
Перевод: Профессиональный (многоголосый, закадровый) [Jaskier]
Режиссер: Дженнифер Гетцингер / Jennifer Getzinger, ...-В ролях: Мэри Элизабет Уинстэд, Дилан Кингуэлл, Софи Лоу, Аарон Дуглас, Леа Гибсон, Чела Хорсдэл, Джейн Крэйвен, Моник Питер, Брюс Блэйн, Индия Энненга-Описание: Сериал рассказывает о маленьком городке, жизнь в котором перевернулась с ног на голову, когда неожиданно объявились несколько местных жителей, которых давно считали погибшими. Причем они совсем не постарели с момента их исчезновения и, более того, ничего не знали о собственной смерти.-
Качество видео: HD TVRIP-AVC
Контейнер: MKV
Видео кодек: MPEG4 AVC
Аудио кодек: AC3
Видео: ~ 2000 kb/s, 1280x720, 23,976 (24000/1001) fps
Аудио: AC3, 2 ch, 192 kb/s, 48,0 kHz
Cубтитры: отсутствуют
За всё приходится платить…
Жанр сверхъестественного ужаса весьма схож с детективным — оба они лучше выглядят в форме рассказа, нежели романа и даже повести. В случае с сериалом это означает, что предпочтительнее не растягивать историю на десяток серий, а делать каждую из них отдельной историей с началом и концом. Однако, если требуется упор не на ужас как таковой, а на мистико-психологическую составляющую повествования, то рассказ становится слишком малой формой для оного. Как следствие, действие оказывается или излишне скомкано, или, наоборот, растянуто. Сверхъестественный ужас устроен так, что не терпит ни первого, ни второго. И вот как раз с этим в сериале полный порядок — действие разворачивается неспешно, позволяя зрителю познакомиться с каждым из персонажей и сделать выводы о его возможных мотивах, но при этом всё, необходимое для сохранения интриг, раскрывается именно в нужный момент, параллельно выясняется и история города, а заодно предлагаются небольшие подсказки, позволяющие догадаться, к чему придёт та или иная сюжетная линия.
А вот с драматической составляющей сюжета всё несколько хуже. Поведение многих персонажей балансирует на грани даже иррациональной логики, а возможные объяснения оказываются шиты белыми нитками. Самую логичную реакцию на возвращение умершего продемонстрировал один из эпизодических персонажей первой серии, в то время как остальные ведут себя так, словно событие это хоть и необычное, но не совсем уж из ряда вон выходящее. Однако в целом картина складывается достаточно правдоподобная. Несколько раздражает обилие секса как такового, будь он гетеро или гомосексуальным. Но этим грешат почти все сериалы и фильмы, снятые в конце двадцатого — начале двадцать первого веков. Странно, что драматическая составляющая без оного не может обойтись.
Актёрская игра, визуальное и звуковое оформление нареканий не вызывают. Продолжительность в десять серий оказалась оптимальной для нагнетания атмосферы и раскрытия психологии персонажей истории без излишнего растягивания или, наоборот, скомканности. То что нужно для полноценного произведения в мистическом жанре. А мистики в сериале намного больше, нежели ужаса.
Общее
Уникальный идентификатор : 202706027394951651296921731410039582783 (0x987FC2C43B8AEA6791D91C230D3AB03F)
Полное имя : F:\ПОСЛЕДНИЕ ЗАГРУЗКИ\The Returned.HDTVRip-AVC.720р.Jaskier.[pirat.ca]\The Returned.s01e01.720p.Jaskier.mkv
Формат : Matroska
Версия формата : Version 2
Размер файла : 993 Мбайт
Продолжительность : 45 м.
Общий поток : 3021 Кбит/сек
Дата кодирования : UTC 2016-09-04 00:01:05
Программа кодирования : mkvmerge v5.3.0 ('I could have danced') built on Feb 9 2012 10:38:07
Библиотека кодирования : libebml v1.2.3 + libmatroska v1.3.0
Видео
Идентификатор : 1
Формат : AVC
Формат/Информация : Advanced Video Codec
Профиль формата : [email protected]
Параметр CABAC формата : Да
Параметр ReFrames формата : 5 кадров
Идентификатор кодека : V_MPEG4/ISO/AVC
Продолжительность : 45 м.
Битрейт : 2769 Кбит/сек
Ширина : 1280 пикселей
Высота : 720 пикселей
Соотношение сторон : 16:9
Режим частоты кадров : Постоянный
Частота кадров : 23,976 (24000/1001) кадра/сек
Цветовое пространство : YUV
Субдискретизация насыщенности : 4:2:0
Битовая глубина : 8 бит
Тип развёртки : Прогрессивная
Бит/(Пиксели*Кадры) : 0.125
Размер потока : 911 Мбайт (92%)
Библиотека кодирования : x264 core 144 r2525 40bb568
Настройки программы : cabac=1 / ref=5 / deblock=1:0:0 / analyse=0x3:0x113 / me=umh / subme=8 / psy=1 / psy_rd=1.00:0.00 / mixed_ref=1 / me_range=16 / chroma_me=1 / trellis=1 / 8x8dct=1 / cqm=0 / deadzone=21,11 / fast_pskip=1 / chroma_qp_offset=-2 / threads=24 / lookahead_threads=4 / sliced_threads=0 / nr=0 / decimate=1 / interlaced=0 / bluray_compat=0 / constrained_intra=0 / bframes=3 / b_pyramid=2 / b_adapt=2 / b_bias=0 / direct=3 / weightb=1 / open_gop=0 / weightp=2 / keyint=250 / keyint_min=23 / scenecut=40 / intra_refresh=0 / rc_lookahead=50 / rc=crf / mbtree=1 / crf=18.0 / qcomp=0.60 / qpmin=0 / qpmax=69 / qpstep=4 / ip_ratio=1.40 / aq=1:1.00
Язык : English
Default : Да
Forced : Нет
Цветовой диапазон : Limited
Коэффициенты матрицы : BT.709
Statistics Tags Issue : mkvmerge v7.5.0 ('Glass Culture') 64bit built on Jan 4 2015 16:48:44 2015-03-13 09:45:51 / mkvmerge v5.3.0 ('I could have danced') built on Feb 9 2012 10:38:07 2016-09-04 00:01:05
FromStats_BitRate : 2827362
FromStats_Duration : 00:45:58.422000000
FromStats_FrameCount : 66136
FromStats_StreamSize : 974882499
Аудио
Идентификатор : 2
Формат : AC-3
Формат/Информация : Audio Coding 3
Расширение режима : CM (complete main)
Параметр Endianness формата : Big
Идентификатор кодека : A_AC3
Продолжительность : 45 м.
Вид битрейта : Постоянный
Битрейт : 192 Кбит/сек
Каналы : 2 канала
Расположение каналов : Front: L R
Частота : 48,0 КГц
Частота кадров : 31,250 кадров/сек (1536 spf)
Метод сжатия : С потерями
Размер потока : 63,1 Мбайт (6%)
Заголовок : RUS (Jaskier)
Язык : Russian
Default : Да
Forced : Нет
Statistics Tags Issue : mkvmerge v7.5.0 ('Glass Culture') 64bit built on Jan 4 2015 16:48:44 2015-03-13 09:45:51 / mkvmerge v5.3.0 ('I could have danced') built on Feb 9 2012 10:38:07 2016-09-04 00:01:05
FromStats_BitRate : 192000
FromStats_Duration : 00:45:58.432000000
FromStats_FrameCount : 86201
FromStats_StreamSize : 66202368
Download / Скачать

Хотите скачать бесплатно? Зарегистрируйтесь на сайте (ссылка на регистрацию). Pirat.ca - самый быстрый торрент трекер в рунете!

Как скачивать  ·   Что такое торрент  ·   Рейтинг и ограничения



Последний раз редактировалось: somik (2016-09-04 06:32), всего редактировалось 2 раз(а)

somik ®

Легенда

27147

Пост 04-Сен-2016 05:56 (спустя 1 час 37 минут)

[Q] 

Дайте загрузить файл! Вставайте не раздаче после появления сидера!

_________________
Всё когда-нибудь уже было... В интернете!
[Профиль]  [ЛС] 
Показать сообщения:    
Ответить на тему

Текущее время: Сегодня 12:47

Часовой пояс: GMT + 4



Вы не можете начинать темы
Вы не можете отвечать на сообщения
Вы не можете редактировать свои сообщения
Вы не можете удалять свои сообщения
Вы не можете голосовать в опросах
Вы не можете прикреплять файлы к сообщениям
Вы не можете скачивать файлы

▼ Вниз