ML
     
  Уважаемый Гость!
Вы можете поддержать проект и зарегистрироваться у наших партнеров - онлайн-стратегия MyLands. При регистрации в игре Вы получите код, который сможете активировать после регистрации на pirat.ca и получить 1000 дублонов.

Ваш код:
2932e5898d0a27592397f70b82a5834d1e70ea19
 
     

Новые миры / New Worlds / Сезон: 1 / Серии: 4 из 4 (Чарльз Мартин Charles Martin) [2014 г., драма, история, HD TVRIP-AVC, 720p] MVO (BaibaKo)

Ответить на тему
 
Автор
Сообщение

Пост 04-Сен-2016 05:50

[Q] 

somik

Легенда

-Новые миры / New Worlds-- Производство: Великобритания
Жанр: драма, история
Год выпуска: 2014 г.
Продолжительность: 00:50:00
Мировая премьера: 1 апреля 2014
Перевод: Профессиональный (многоголосый, закадровый) [BaibaKo ]
Режиссер: Чарльз Мартин Charles Martin-В ролях: Пип Картер, Фил Чидл, Холли Демпси, Джозеф Демпси, Джейми Дорнан, Элис Энглерт, Michael Maloney, Фрейя Мавор, Гай Генри, Эми Марстон и др.-Описание: События фильма разворачиваются в 1680-х годах. Находящиеся по разные стороны Атлантического океана, два молодых человека и две женщины рискуют своими жизнями ради более справедливого будущего…-
Качество видео: HD TVRIP-AVC
Контейнер: MKV
Стандарт разрешения: 720p
Видео кодек: MPEG4 AVC
Аудио кодек: AC3
Видео: ~ 2200 kbps, 1280x520, 25,000 fps
Аудио: AC3, 2 ch, 384 kbps, 48,0 kHz
Cубтитры: отсутствуют
Сумбурный экскурс в мрачную историю становления английской демократии
«Новые миры» — продолжение другого британского мини-сериала «Любовница Дьявола». Действие происходит в непростое для Англии время: после Реставрации остались многочисленные противники лишь формально ограниченной парламентом власти короля. По другую сторону Атлантики назревает борьба за независимость от короны, да еще и коренное население не желает освобождать земли для переселенцев с Туманного Альбиона.
Такие «исходные данные» позволили создать вполне (а местами и слишком) динамичный сюжет. Тем не менее, нельзя сказать, что фильм захватывает с самого начала. Именно из-за этой «сценарной» торопливости в первые моменты создается ощущение какого-то раздражающего мельтешения. Примерно к середине первой серии оно проходит, но все равно есть подозрение, что в 4 эпизода создатели руками и ногами упихали событий на десяточку серий. Однако, снято все вполне качественно: неплохие костюмы, симпатичная пейзажная съемка, достаточно достоверная обстановка (дома, халупы, усадьбы, вигвамы — разнообразие небывалое).
Актерский состав также радует. Сериал был выбран мною из-за участия в нем Элис Энглерт, молодой новозеландской актрисы, сыгравшей леди Поул в «Джонатане Стрендже и мистере Норрелле». Судя по этим двум картина, играть суровых женщин у нее получается отменно. Ее героине веришь, она действительно родилась не в то время и не в том месте. Другая главная героиня — Бет (Фрейя Мавор), почему-то несколько раз за фильм представляется уродиной, но выглядит это неубедительно, поскольку девушка действительно красива. Я бы сказала, что для того времени она как-то чересчур эмансипирована и не в меру страстна (что в сцене в лесу с героем Джейми Дорнана, что с индейцем, словом, барышня нескромная), но это уже вопросы к сценаристам. Которые, как мне кажется, вообще приукрасили нравы 17 века, приблизив их к современным.
Мужчины в сериале тоже смотрятся недурно: Джозеф Демпси симпатично изобразил молодого американского дельца, убеждения которого не совпадают с правилами «игры» его родителя. Джейми Дорнану досталась роль Робина Гуда, правда, немного бестолкового, но очень идейного: он постоянно порывается в кого-то стрелять, бегает окровавленный с ружьем по лесу, и все во благо английского народа. Из-за этой кутерьмы не очень понятно, насколько качественна игра актера. Он в основном сверкает очами или валяется побитый-подстреленный-истерзанный (подчеркнуть нужное). Но диссонанса не вызывает и ладно.
Помимо некоторой сумбурности, я могу выделить еще один, но, на мой взгляд, существенный минус сюжета. Боролись они, боролись. Куча народу погибла, а зачем? Послесловие некоторым образом вообще перечеркивает весь смысл повествования. То есть нам показали мытарства четырех молодых людей, жизнь которых, конечно, очень разнообразна, но где же логичное завершение? Вроде как помыкались они по всему свету, горя идеей единства и равноправия всех-всех в мире, но ничего толкового предпринять так и не смогли. И вот за это из 10 сериалу я ставлю 7. Нужно было, наверное, больше серий, тогда удалось бы избежать сумятицы и скомканности.
7 из 10
Общее
Уникальный идентификатор : 199200316826683236250309362064611714176 (0x95DC95E4090D067CAE51A5EB6E51A480)
Полное имя : F:\ПОСЛЕДНИЕ ЗАГРУЗКИ\New Worlds.S01.2014.HDTV.720p.BaibaKo.[pirat.ca]\New.Worlds.s01e01.HDTV720p.Rus.Eng.BaibaKo.tv.mkv
Формат : Matroska
Версия формата : Version 2
Размер файла : 905 Мбайт
Продолжительность : 50 м.
Общий поток : 2511 Кбит/сек
Дата кодирования : UTC 2016-09-04 01:22:58
Программа кодирования : mkvmerge v5.3.0 ('I could have danced') built on Feb 9 2012 10:38:07
Библиотека кодирования : libebml v1.2.3 + libmatroska v1.3.0
Видео
Идентификатор : 1
Формат : AVC
Формат/Информация : Advanced Video Codec
Профиль формата : [email protected]
Параметр CABAC формата : Да
Параметр ReFrames формата : 5 кадров
Идентификатор кодека : V_MPEG4/ISO/AVC
Продолжительность : 50 м.
Битрейт : 2077 Кбит/сек
Ширина : 1280 пикселей
Высота : 520 пикселей
Соотношение сторон : 2,462
Режим частоты кадров : Постоянный
Частота кадров : 25,000 кадров/сек
Цветовое пространство : YUV
Субдискретизация насыщенности : 4:2:0
Битовая глубина : 8 бит
Тип развёртки : Прогрессивная
Бит/(Пиксели*Кадры) : 0.125
Размер потока : 749 Мбайт (83%)
Библиотека кодирования : x264 core 142 r2409 d6b4e63
Настройки программы : cabac=1 / ref=5 / deblock=1:0:0 / analyse=0x3:0x113 / me=umh / subme=8 / psy=1 / psy_rd=1.00:0.00 / mixed_ref=1 / me_range=16 / chroma_me=1 / trellis=1 / 8x8dct=1 / cqm=0 / deadzone=21,11 / fast_pskip=1 / chroma_qp_offset=-2 / threads=12 / lookahead_threads=2 / sliced_threads=0 / nr=0 / decimate=1 / interlaced=0 / bluray_compat=0 / constrained_intra=0 / bframes=3 / b_pyramid=2 / b_adapt=2 / b_bias=0 / direct=3 / weightb=1 / open_gop=0 / weightp=2 / keyint=250 / keyint_min=25 / scenecut=40 / intra_refresh=0 / rc_lookahead=50 / rc=crf / mbtree=1 / crf=18.0 / qcomp=0.60 / qpmin=0 / qpmax=69 / qpstep=4 / ip_ratio=1.40 / aq=1:1.00
Язык : English
Default : Да
Forced : Нет
Цветовой диапазон : Limited
Коэффициенты матрицы : BT.709
Аудио
Идентификатор : 2
Формат : AC-3
Формат/Информация : Audio Coding 3
Расширение режима : CM (complete main)
Параметр Endianness формата : Big
Идентификатор кодека : A_AC3
Продолжительность : 50 м.
Вид битрейта : Постоянный
Битрейт : 384 Кбит/сек
Каналы : 2 канала
Расположение каналов : Front: L R
Частота : 48,0 КГц
Частота кадров : 31,250 кадров/сек (1536 spf)
Метод сжатия : С потерями
Размер потока : 138 Мбайт (15%)
Язык : Russian
Default : Да
Forced : Нет
Download / Скачать

Хотите скачать бесплатно? Зарегистрируйтесь на сайте (ссылка на регистрацию). Pirat.ca - самый быстрый торрент трекер в рунете!

Как скачивать  ·   Что такое торрент  ·   Рейтинг и ограничения

Показать сообщения:    
Ответить на тему

Текущее время: Сегодня 08:02

Часовой пояс: GMT + 4



Вы не можете начинать темы
Вы не можете отвечать на сообщения
Вы не можете редактировать свои сообщения
Вы не можете удалять свои сообщения
Вы не можете голосовать в опросах
Вы не можете прикреплять файлы к сообщениям
Вы не можете скачивать файлы

▼ Вниз