ML
     
  Уважаемый Гость!
Вы можете поддержать проект и зарегистрироваться у наших партнеров - онлайн-стратегия MyLands. При регистрации в игре Вы получите код, который сможете активировать после регистрации на pirat.ca и получить 1000 дублонов.

Ваш код:
db0e0ad91548759ffeb9bb88bed405e1a4b3c165
 
     

Коллекционер человеческих душ / The Collector / Сезон: 1 / Серии: 14 из 14 (Холли Дэйл / Holly Dale, ...) [2004 г., фэнтези, боевик, HDTVRip] MVO [+ Original (Eng)] (Novafilm)

Ответить на тему
 
Автор
Сообщение

Пост 04-Сен-2016 07:15

[Q] 

somik

Легенда

-Коллекционер человеческих душ / Собиратель душ / The Collector-- Производство: Канада
Жанр: фэнтези, боевик
Год выпуска: 2004 г.
Продолжительность: 00:45:00
Мировая премьера: 2 июня 2004
Дата выхода DVD: 3 августа 2010, «Русское счастье»
Перевод: Профессиональный (многоголосый, закадровый) [Novafilm]
Оригинальный аудиопоток: английский
Режиссер: Холли Дэйл / Holly Dale, ...-В ролях: Крис Крамер, Эллен Дубин, Эйдан Драммонд, Колин Каннингэм, Соня Саломяа, Карли Поуп, Она Грауэр, Кристин Шателейн, Эндрю Джексон, Адриан Хью и др.-Описание: Собиратель душ по имени Морган Пим заключает сделку с дьяволом… Вместо того, чтобы переправлять души в ад, он, в течение сорока восьми часов, пытается найти для человека искупление. Когда-то сам Морган был монахом, но ради своей возлюбленной продал душу дьяволу, и если бы не странная слабость дьявола к бывшему монаху, так же оказался бы в аду. Но если душа Моргана не горит в огне преисподней, то вполне возможно, что его место заняла его возлюбленная… Дьявол ведь должен был кого-нибудь забрать вместо него…-
Качество видео: HDTVRip
Контейнер: AVI
Видео кодек: XviD
Аудио кодек: MP3
Видео: 512x384 (1.33:1), 23.976 fps, XviD MPEG-4 ~935 kbps avg, 0.20 bit/pixel
Аудио: 48 kHz, MPEG Layer 3, 2 ch, ~128.00 kbps avg
Аудио #2: 48 kHz, MPEG Layer 3, 2 ch, ~160.00 kbps avg
Cубтитры: отсутствуют
Собиратель душ. ..
Зная, что мистика, все-таки, не мой тип фильмов *или сериалов*, устоять против «Соирателя душ» оказалось невозможно.
Привлекало для начала само название — «Собиратель душ». . Не впрада ли звучит заманчиво? А потом. .. С каждой серией «погружаясь» в темные души грешников, в средневековый город и монастырь, где когда-то служил Морган Пим, забываешь обо всем и с интересом, осуждением или сочувствием наблюдаешь за развивающимися событиями, за проделками хитроумного дьявола, за попытками грешника спасти себя от «жаркого пламени ада». ..
Смерть людей, не желающих искать искупления за свои грехи или не желающих делать этого, потому что не могут простить себе того, что из-за их личных желаний пострадал невинный человек, предпочитая ад, чем жизнь с мыслю об этом, заставляет задуматься над многим…
Никогда не представляли, ради чего обитатели земли готовы продать свою душу дьяволу? Посмотрите и увидите, что желания людей разные от чисто эгоистических до «добрых миссий вселенского масштаба» *если, конечно, дьявол не захочет обыграть ваше желание и превратить его в нечто ему удобное*, но рано или поздно за оказанную «помощь» дьявол придет за принадлежащей ему душой..
А самое интересное, что не раз задумаешься лично: а смог ли бы я променять душу и на что????
Общее
Полное имя : F:\!СЕРИАЛЫ\Коллекционер человеческих душ\sobiratel dush.2004.S01.HDTVRip.[pirat.ca]\collector.s01e01.rus.eng.pdtv.novafilm.tv.avi
Формат : AVI
Формат/Информация : Audio Video Interleave
Размер файла : 392 Мбайт
Продолжительность : 44 м.
Общий поток : 1238 Кбит/сек
Программа кодирования : VirtualDubMod 1.5.10.2 (build 2542/release)
Библиотека кодирования : VirtualDubMod build 2542/release
Видео
Идентификатор : 0
Формат : MPEG-4 Visual
Профиль формата : Advanced [email protected]
Параметр BVOP формата : 2
Параметр QPel формата : Нет
Параметр GMC формата : Без точки перехода
Параметр матрицы формата : Default (H.263)
Режим смешивания : Сжатый битовый поток
Идентификатор кодека : XVID
Идентификатор кодека/Подсказка : XviD
Продолжительность : 44 м.
Битрейт : 936 Кбит/сек
Ширина : 512 пикселей
Высота : 384 пикселя
Соотношение сторон : 4:3
Частота кадров : 23,976 (23976/1000) кадра/сек
Цветовое пространство : YUV
Субдискретизация насыщенности : 4:2:0
Битовая глубина : 8 бит
Тип развёртки : Прогрессивная
Метод сжатия : С потерями
Бит/(Пиксели*Кадры) : 0.199
Размер потока : 297 Мбайт (76%)
Библиотека кодирования : XviD 1.1.0 (UTC 2005-11-22)
Аудио #1
Идентификатор : 1
Формат : MPEG Audio
Версия формата : Version 1
Профиль формата : Layer 3
Режим : Joint stereo
Расширение режима : MS Stereo
Идентификатор кодека : 55
Идентификатор кодека/Подсказка : MP3
Продолжительность : 44 м.
Вид битрейта : Постоянный
Битрейт : 128 Кбит/сек
Каналы : 2 канала
Частота : 48,0 КГц
Метод сжатия : С потерями
Размер потока : 40,6 Мбайт (10%)
Выравнивание : Соединение по промежуткам
Продолжительность промежутка : 42 мс. (1,00 видеокадр)
Время предзагрузки промежутка : 504 мс.
Аудио #2
Идентификатор : 2
Формат : MPEG Audio
Версия формата : Version 1
Профиль формата : Layer 3
Режим : Joint stereo
Расширение режима : MS Stereo
Идентификатор кодека : 55
Идентификатор кодека/Подсказка : MP3
Продолжительность : 44 м.
Вид битрейта : Постоянный
Битрейт : 160 Кбит/сек
Каналы : 2 канала
Частота : 48,0 КГц
Метод сжатия : С потерями
Размер потока : 50,7 Мбайт (13%)
Выравнивание : Разделение по промежуткам
Продолжительность промежутка : 42 мс. (1,00 видеокадр)
Время предзагрузки промежутка : 500 мс.
Download / Скачать

Хотите скачать бесплатно? Зарегистрируйтесь на сайте (ссылка на регистрацию). Pirat.ca - самый быстрый торрент трекер в рунете!

Как скачивать  ·   Что такое торрент  ·   Рейтинг и ограничения

Показать сообщения:    
Ответить на тему

Текущее время: Сегодня 08:10

Часовой пояс: GMT + 4



Вы не можете начинать темы
Вы не можете отвечать на сообщения
Вы не можете редактировать свои сообщения
Вы не можете удалять свои сообщения
Вы не можете голосовать в опросах
Вы не можете прикреплять файлы к сообщениям
Вы не можете скачивать файлы

▼ Вниз