ML
     
  Уважаемый Гость!
Вы можете поддержать проект и зарегистрироваться у наших партнеров - онлайн-стратегия MyLands. При регистрации в игре Вы получите код, который сможете активировать после регистрации на pirat.ca и получить 1000 дублонов.

Ваш код:
8b752b428cf60a012c159dcae592cd1392170115
 
     

Коллекционер человеческих душ / Собиратель душ / The Collector / Сезон: 2 / Серии: 13 из 13 (Холли Дэйл / Holly Dale, ...) [2005 г., фэнтези, боевик, DVDRip] MVO (AXN Sci-Fi Россия) + Original (Eng)

Ответить на тему
 
Автор
Сообщение

Пост 04-Сен-2016 07:34

[Q] 

somik

Легенда

-Коллекционер человеческих душ / Собиратель душ / The Collector-- Производство: Канада
Жанр: фэнтези, боевик
Год выпуска: 2005 г.
Продолжительность: 00:45:00
Мировая премьера: 1 сентября 2005
Перевод: Профессиональный (многоголосый, закадровый) [AXN Sci-Fi Россия]
Оригинальный аудиопоток: английский
Режиссер: Холли Дэйл / Holly Dale, ...-В ролях: Крис Крамер, Эллен Дубин, Эйдан Драммонд, Колин Каннингэм, Соня Саломяа, Карли Поуп, Она Грауэр, Кристин Шателейн, Эндрю Джексон, Адриан Хью и др.-Описание: Собиратель душ по имени Морган Пим заключает сделку с дьяволом… Вместо того, чтобы переправлять души в ад, он, в течение сорока восьми часов, пытается найти для человека искупление. Когда-то сам Морган был монахом, но ради своей возлюбленной продал душу дьяволу, и если бы не странная слабость дьявола к бывшему монаху, так же оказался бы в аду. Но если душа Моргана не горит в огне преисподней, то вполне возможно, что его место заняла его возлюбленная… Дьявол ведь должен был кого-нибудь забрать вместо него…-
Качество видео: DVDRip
Контейнер: AVI
Видео кодек: XviD
Аудио кодек: MP3
Видео: 640x352 (1.82:1), 23.976 fps, XviD build 50 ~944 kbps avg, 0.17 bit/pixel
Аудио: 48 kHz, MPEG Layer 3, 2 ch, ~128.00 kbps avg
Аудио #2: 48 kHz, MPEG Layer 3, 2 ch, ~136.63 kbps avg
Cубтитры: отсутствуют
Истина где-то там…
Мистические сериалы — это вообще очень приятное для просмотра зрелище. Будь то Сверхъестественное, то Секретные материалы. В принципе, снять хороший мистический сериал, как оказалось, очень просто. Потому что их очень много… и их смотрят. Правда есть люди, которые путают жанр мистики с фантастикой. И говорят «не будем мы эту фантастику смотреть». Но тем и отличается мистика от фантастки — фантастика бывает плохой и несмотрибельной намного чаще.
«Собиратель душ» так и не получил заслуженного признания среди российского зрителя, не знаю как дела обстоят в Канаде, но здесь об этом сериале слышал мало кто. Так уж повелось, что нашим людям подавай распиаренный американский продукт. Я ни в коем случае не хочу сказать, что он чем-то плох. Но из-за него на второй, даже третий план, уходят отличные сериалы, далеко не американского производства. Одним из таких недооцененных сериалов является «The Collector».
Сериал канадского производства включает в себя целостные истории разных людей. Главная мотивация каждой серии — искупление. Искупишь грех — живи, нет — попади в Ад. И пока ты наблюдаешь за попытками главных героев найти путь к спасению — сам начинаешь задумываться о вещах разного толка.
На мой взгляд — замечательный мистический сериал.
Общее
Полное имя : E:\Коллекционер человеческих душ\sobiratel dush.2005.S02.DVDRip.[pirat.ca]\the.collector.s02e01.dvdrip.rus.eng.gravi-tv.avi
Формат : AVI
Формат/Информация : Audio Video Interleave
Размер файла : 391 Мбайт
Продолжительность : 44 м.
Режим общего битрейта : Переменный
Общий поток : 1228 Кбит/сек
Программа кодирования : VirtualDubMod 1.6.0.0 SURROUND (build 2560/release)
Библиотека кодирования : VirtualDubMod build 2560/release
Видео
Идентификатор : 0
Формат : MPEG-4 Visual
Профиль формата : Advanced [email protected]
Параметр BVOP формата : Нет
Параметр QPel формата : Нет
Параметр GMC формата : Без точки перехода
Параметр матрицы формата : Default (H.263)
Идентификатор кодека : XVID
Идентификатор кодека/Подсказка : XviD
Продолжительность : 44 м.
Битрейт : 946 Кбит/сек
Ширина : 640 пикселей
Высота : 352 пикселя
Соотношение сторон : 16:9
Частота кадров : 23,976 (23976/1000) кадра/сек
Цветовое пространство : YUV
Субдискретизация насыщенности : 4:2:0
Битовая глубина : 8 бит
Тип развёртки : Прогрессивная
Метод сжатия : С потерями
Бит/(Пиксели*Кадры) : 0.175
Размер потока : 301 Мбайт (77%)
Библиотека кодирования : XviD 1.2.1 (UTC 2008-12-04)
Аудио #1
Идентификатор : 1
Формат : MPEG Audio
Версия формата : Version 1
Профиль формата : Layer 3
Режим : Joint stereo
Расширение режима : MS Stereo
Идентификатор кодека : 55
Идентификатор кодека/Подсказка : MP3
Продолжительность : 44 м.
Вид битрейта : Постоянный
Битрейт : 128 Кбит/сек
Каналы : 2 канала
Частота : 48,0 КГц
Метод сжатия : С потерями
Размер потока : 40,7 Мбайт (10%)
Выравнивание : Соединение по промежуткам
Продолжительность промежутка : 42 мс. (1,00 видеокадр)
Время предзагрузки промежутка : 504 мс.
Аудио #2
Идентификатор : 2
Формат : MPEG Audio
Версия формата : Version 1
Профиль формата : Layer 3
Режим : Joint stereo
Расширение режима : MS Stereo
Идентификатор кодека : 55
Идентификатор кодека/Подсказка : MP3
Продолжительность : 44 м.
Вид битрейта : Переменный
Битрейт : 132 Кбит/сек
Каналы : 2 канала
Частота : 48,0 КГц
Метод сжатия : С потерями
Размер потока : 43,5 Мбайт (11%)
Выравнивание : Соединение по промежуткам
Продолжительность промежутка : 24 мс. (0,58 видеокадр)
Время предзагрузки промежутка : 481 мс.
Библиотека кодирования : LAME3.90.
Настройки программы : -m j -V 4 -q 2 -lowpass 17.6 --abr 132
Download / Скачать

Хотите скачать бесплатно? Зарегистрируйтесь на сайте (ссылка на регистрацию). Pirat.ca - самый быстрый торрент трекер в рунете!

Как скачивать  ·   Что такое торрент  ·   Рейтинг и ограничения

Показать сообщения:    
Ответить на тему

Текущее время: Сегодня 06:18

Часовой пояс: GMT + 4



Вы не можете начинать темы
Вы не можете отвечать на сообщения
Вы не можете редактировать свои сообщения
Вы не можете удалять свои сообщения
Вы не можете голосовать в опросах
Вы не можете прикреплять файлы к сообщениям
Вы не можете скачивать файлы

▼ Вниз