ML
     
  Уважаемый Гость!
Вы можете поддержать проект и зарегистрироваться у наших партнеров - онлайн-стратегия MyLands. При регистрации в игре Вы получите код, который сможете активировать после регистрации на pirat.ca и получить 1000 дублонов.

Ваш код:
193c38d0130f05c24de871678ea3ac181461757d
 
     

Коллекционер человеческих душ / Собиратель душ / The Collector / Сезон: 3 / Серии: 13 из 13 (Холли Дэйл / Holly Dale, ...) [2006 г., фэнтези, боевик, HDTVRip] MVO (AXN Sci-Fi Россия)

Ответить на тему
 
Автор
Сообщение

Пост 04-Сен-2016 07:53

[Q] 

somik

Легенда

-Коллекционер человеческих душ / Собиратель душ / The Collector-- Производство: Канада
Жанр: фэнтези, боевик
Год выпуска: 2006 г.
Продолжительность: 00:45:00
Мировая премьера: 10 января 2006
Перевод: Профессиональный (многоголосый, закадровый) [AXN Sci-Fi Россия]
Режиссер: Холли Дэйл / Holly Dale, ...-В ролях: Крис Крамер, Эллен Дубин, Эйдан Драммонд, Колин Каннингэм, Соня Саломяа, Карли Поуп, Она Грауэр, Кристин Шателейн, Эндрю Джексон, Адриан Хью и др.-Описание: Собиратель душ по имени Морган Пим заключает сделку с дьяволом… Вместо того, чтобы переправлять души в ад, он, в течение сорока восьми часов, пытается найти для человека искупление. Когда-то сам Морган был монахом, но ради своей возлюбленной продал душу дьяволу, и если бы не странная слабость дьявола к бывшему монаху, так же оказался бы в аду. Но если душа Моргана не горит в огне преисподней, то вполне возможно, что его место заняла его возлюбленная… Дьявол ведь должен был кого-нибудь забрать вместо него…-
Качество видео: HDTVRip
Контейнер: AVI
Видео кодек: XviD
Аудио кодек: MP3
Видео: 512x384 (1.33:1), 23.976 fps, XviD Final 1.0.3 (build 37) ~956 kbps avg, 0.20 bit/pixel
Аудио: 48 kHz, MPEG Layer 3, 2 ch, ~128.00 kbps avg
Аудио #2: 48 kHz, MPEG Layer 3, 2 ch, ~160.00 kbps avg
Cубтитры: отсутствуют
Крепкий среднячок
Начинал смотреть первый сезон из безысходности и был уверен, что это будет плоскокартонный малобюджетный трешевый бред, коих немало на телевидении. Какие-то из эпитетов для «Собирателя душ» справедливы, вот только есть у него всё же изюминки, которые позволяют выделить этот сериал среди подобных ему мистических телевизионных поделок.
Изюминка первая — это образ дьявола и одновременно «фишка» сериала. Дело в том, что в каждой серии Сатана предстаёт перед нами в новом обличии: то он импозантный молодой мужчина, то дряхлый старик, то маленькая девочка. Появление его в серии всегда неожиданно. Несмотря на то, что у него множество лиц, образ Падшего вырисовывается довольно чёткий.
Изюминка вторая — не сочтите за спойлер, но, слава богу, не все из грешников, души которых пытается спасти Морган, получат спасения, иначе истории были бы совсем предсказуемы. Мало того, не все достойны спасения.
Третья изюминка — это наличие побочной тайны. Маленького, слабоумного мальчика, сына помогающей Моргану журналистки, отчего-то до «чёртиков» боится сам дьявол. Эта линия очень интригует.
Да, нельзя не отметить, что этот сериал отнюдь не из высшей лиги, но в среднем дивизионе он занимал бы высокие позиции.
бщее
Полное имя : F:\!СЕРИАЛЫ\Коллекционер человеческих душ\sobiratel dush.2006.S03.HDTVRip.[pirat.ca]\the.collector.s03e01.pdtvrip.rus.eng.gravi-tv.avi
Формат : AVI
Формат/Информация : Audio Video Interleave
Размер файла : 392 Мбайт
Продолжительность : 43 м.
Общий поток : 1259 Кбит/сек
Программа кодирования : VirtualDubMod 1.6.0.0 SURROUND (build 2560/release)
Библиотека кодирования : VirtualDubMod build 2560/release
Видео
Идентификатор : 0
Формат : MPEG-4 Visual
Профиль формата : Advanced [email protected]
Параметр BVOP формата : 2
Параметр QPel формата : Нет
Параметр GMC формата : Без точки перехода
Параметр матрицы формата : Default (H.263)
Режим смешивания : Сжатый битовый поток
Идентификатор кодека : XVID
Идентификатор кодека/Подсказка : XviD
Продолжительность : 43 м.
Битрейт : 957 Кбит/сек
Ширина : 512 пикселей
Высота : 384 пикселя
Соотношение сторон : 4:3
Частота кадров : 23,976 (23976/1000) кадра/сек
Цветовое пространство : YUV
Субдискретизация насыщенности : 4:2:0
Битовая глубина : 8 бит
Тип развёртки : Прогрессивная
Метод сжатия : С потерями
Бит/(Пиксели*Кадры) : 0.203
Размер потока : 298 Мбайт (76%)
Библиотека кодирования : XviD 1.0.3 (UTC 2004-12-20)
Аудио #1
Идентификатор : 1
Формат : MPEG Audio
Версия формата : Version 1
Профиль формата : Layer 3
Режим : Joint stereo
Расширение режима : MS Stereo
Идентификатор кодека : 55
Идентификатор кодека/Подсказка : MP3
Продолжительность : 43 м.
Вид битрейта : Постоянный
Битрейт : 128 Кбит/сек
Каналы : 2 канала
Частота : 48,0 КГц
Метод сжатия : С потерями
Размер потока : 39,8 Мбайт (10%)
Выравнивание : Соединение по промежуткам
Продолжительность промежутка : 42 мс. (1,00 видеокадр)
Время предзагрузки промежутка : 504 мс.
Аудио #2
Идентификатор : 2
Формат : MPEG Audio
Версия формата : Version 1
Профиль формата : Layer 3
Режим : Joint stereo
Расширение режима : MS Stereo
Идентификатор кодека : 55
Идентификатор кодека/Подсказка : MP3
Продолжительность : 43 м.
Вид битрейта : Постоянный
Битрейт : 160 Кбит/сек
Каналы : 2 канала
Частота : 48,0 КГц
Метод сжатия : С потерями
Размер потока : 49,8 Мбайт (13%)
Выравнивание : Разделение по промежуткам
Продолжительность промежутка : 42 мс. (1,00 видеокадр)
Время предзагрузки промежутка : 500 мс.
Download / Скачать

Хотите скачать бесплатно? Зарегистрируйтесь на сайте (ссылка на регистрацию). Pirat.ca - самый быстрый торрент трекер в рунете!

Как скачивать  ·   Что такое торрент  ·   Рейтинг и ограничения

Показать сообщения:    
Ответить на тему

Текущее время: Сегодня 18:09

Часовой пояс: GMT + 4



Вы не можете начинать темы
Вы не можете отвечать на сообщения
Вы не можете редактировать свои сообщения
Вы не можете удалять свои сообщения
Вы не можете голосовать в опросах
Вы не можете прикреплять файлы к сообщениям
Вы не можете скачивать файлы

▼ Вниз