ML
     
  Уважаемый Гость!
Вы можете поддержать проект и зарегистрироваться у наших партнеров - онлайн-стратегия MyLands. При регистрации в игре Вы получите код, который сможете активировать после регистрации на pirat.ca и получить 1000 дублонов.

Ваш код:
193c38d0130f05c24de871678ea3ac181461757d
 
     

Обитель Анубиса / House of Anubis / Сезон: 1 / Серии: 27 из 27 (Тим Хоупвелл / Tim Hopewell) [2011 г., драма, детектив, семейный, 6+, WEB-DLRip] Dub (канал Nickelodeon)

Ответить на тему
 
Автор
Сообщение

Пост 04-Сен-2016 08:24

[Q] 

somik

Легенда

-Обитель Анубиса / House of Anubis-- Производство: Великобритания, США, Nickelodeon
Жанр: драма, детектив, семейный, 6+
Год выпуска: 2011 г.
Продолжительность: 00:22:00
Мировая премьера: 1 января 2011
Российская премьера: 11 июня 2011
Перевод: Профессиональный (полное дублирование) [канал Nickelodeon]
Режиссер: Тим Хоупвелл / Tim Hopewell-В ролях: Алекс Сойер, Джейд Рэмси, Теси Дхенрадж, Наталиа Рамос, Брэд Кэвэна, Ана Мулвой-Тен, Бобби Локвуд, Юджин Саймон, Катрин Бэйли, Эмилия Джонс-Описание: Нина, девушка из США, приезжает на учебу в английскую школу. Ей и так непросто в новой обстановке, но тут еще обнаруживается, что одна из студенток, Джой, таинственным образом исчезла. Лучшая подруга пропавшей девушки, Патрисия, начинает подозревать в этом странном событии почему-то именно Нину… Волнение обитателей «Дома Анубиса» усиливается, когда на зеркале в ванной комнате вдруг появляется пугающее сообщение со словами «Помоги мне! Джой». Что же произошло на самом деле и кто виноват в исчезновении девушки?-
Качество видео: WEB-DLRip
Контейнер: AVI
Видео кодек: XviD
Аудио кодек: AC3
Видео: 720x400 (1.80:1), 29.970 fps, XviD build 50 ~1411 kbps avg, 0.16 bit/pixel
Аудио: 48 kHz, AC3 Dolby Digital, 2/0 (L,R) ch, ~192 kbps
Cубтитры: отсутствуют
Мечта любого подростка
Это моя первая рецензия на КиноПоиске, поэтому постараюсь сразу разложить все по полочкам.
Как действительный фанат Гарри Поттера, могу с уверенностью сказать, что сага Роулинг абсолютно непохожа на этот сериал.
Чтобы доказать, давайте сравним: многие говорят о типичности героев и схожести элементов сюжета двух картин, но скажите мне, кого вы считаете похожими на Рона? На Гермиону или Гарри? Нина, Фабиан? Но в действительности общего у них только смелость и любовь к друзьям — как у любого ГГ в фантастической истории…
Насчет сюжета я могу только сказать, что указывая на схожесть многие оценивают Дары Смерти… Тут поиск и там поиск чего-то необходимого жизненно нашим подросткам. Вряд ли вы найдете что ли схожее с «Обителью» в ГП и Орден Феникса или Принц-Полукровка…
Яркая деталь, роднящая эти два произведения — «избранность» главных героев, но и тут: Гарри в одиночку должен быть убить(!) самого могущественного на тот момент волшебника, а Нина — собрать чашу, да как потом окажется в конце второго есть у нее помощники… Дальше распространяться смысла нет, ибо будут спойлеры.
Теперь же к самому сериалу. На мой взгляд, Никелодеон отлично поработал на переработкой старого голландского сериала — потому что сериал вышел захватывающий:)
Приезжает новенькая девочка в школу и начинаются у всех эту девочку окружающих сплошные приключения. И глуповатая блондинка с проблесками умных идей, и клоун, и панк-девочка без комплексов только подливают масла в огонь.
А уж узнавать, что за тайны творятся в подвале их пансиона и причем здесь угрюмый блюститель порядка — выше страха быть раскрытыми.
Любовная линия раскрывается здесь скорее остальными жителями дома — Марой, Миком, Джеромом и остальными… Здесь немного раздражали такие фрагменты, т. к. хотелось следовать мистическому сюжету. Хотя в конце концов удивлялся как они переплетены.
Актерская игра тоже в основном удалась. Видно, что старшее поколение актеров явно опытнее и сильнее однако Ана Мулвой-Тен явно родилась чтобы быть блондинкой. Да, удивили брови Наталии, но это легко опускаемо, а вот улыбка Фабиана меня действительно рассмешила.
В целом, сериал показал себя с самой прекрасной стороны. И, посмотрев на англ. весь второй сезон, могу сказать, что первый — только разогрев)
Снимать в Великобритании оказалось намного выигрышнее, чем на Западе, поэтому фильму
10 из 10
Общее
Полное имя : F:\ПОСЛЕДНИЕ ЗАГРУЗКИ\Обитель Анубиса\Obitel Anubisa.S01.2011.WEB-DLRip.[pirat.ca]\Obitel.Anubisa.S01.E01.avi
Формат : AVI
Формат/Информация : Audio Video Interleave
Размер файла : 556 Мбайт
Продолжительность : 48 м.
Общий поток : 1615 Кбит/сек
Программа кодирования : VirtualDubModRus 1.5.10.1 (build 2439/release)
Библиотека кодирования : VirtualDubMod build 2439/release
Видео
Идентификатор : 0
Формат : MPEG-4 Visual
Профиль формата : Advanced [email protected]
Параметр BVOP формата : 2
Параметр QPel формата : Нет
Параметр GMC формата : Без точки перехода
Параметр матрицы формата : Default (H.263)
Идентификатор кодека : XVID
Идентификатор кодека/Подсказка : XviD
Продолжительность : 48 м.
Битрейт : 1411 Кбит/сек
Ширина : 720 пикселей
Высота : 400 пикселей
Соотношение сторон : 16:9
Частота кадров : 29,970 (29970/1000) кадров/сек
Цветовое пространство : YUV
Субдискретизация насыщенности : 4:2:0
Битовая глубина : 8 бит
Тип развёртки : Прогрессивная
Метод сжатия : С потерями
Бит/(Пиксели*Кадры) : 0.164
Размер потока : 486 Мбайт (87%)
Библиотека кодирования : XviD 1.2.1 (UTC 2008-12-04)
Аудио
Идентификатор : 1
Формат : AC-3
Формат/Информация : Audio Coding 3
Расширение режима : CM (complete main)
Параметр Endianness формата : Big
Идентификатор кодека : 2000
Продолжительность : 48 м.
Вид битрейта : Постоянный
Битрейт : 192 Кбит/сек
Каналы : 2 канала
Расположение каналов : Front: L R
Частота : 48,0 КГц
Частота кадров : 31,250 кадров/сек (1536 spf)
Метод сжатия : С потерями
Размер потока : 66,1 Мбайт (12%)
Выравнивание : Разделение по промежуткам
Продолжительность промежутка : 33 мс. (1,00 видеокадр)
Время предзагрузки промежутка : 500 мс.
Download / Скачать

Хотите скачать бесплатно? Зарегистрируйтесь на сайте (ссылка на регистрацию). Pirat.ca - самый быстрый торрент трекер в рунете!

Как скачивать  ·   Что такое торрент  ·   Рейтинг и ограничения

Показать сообщения:    
Ответить на тему

Текущее время: Сегодня 18:03

Часовой пояс: GMT + 4



Вы не можете начинать темы
Вы не можете отвечать на сообщения
Вы не можете редактировать свои сообщения
Вы не можете удалять свои сообщения
Вы не можете голосовать в опросах
Вы не можете прикреплять файлы к сообщениям
Вы не можете скачивать файлы

▼ Вниз