ML
     
  Уважаемый Гость!
Вы можете поддержать проект и зарегистрироваться у наших партнеров - онлайн-стратегия MyLands. При регистрации в игре Вы получите код, который сможете активировать после регистрации на pirat.ca и получить 1000 дублонов.

Ваш код:
822959f93c00d34653763d5bbf9ee9a7134af98a
 
     

Обитель Анубиса / House of Anubis / Сезон: 2 / Серии: 90 из 90 (Тим Хоупвелл / Tim Hopewell, ...) [2012 г., драма, детектив, семейный, 6+, WEB-DLRip] Dub (канал Nickelodeon)

Ответить на тему
 
Автор
Сообщение

Пост 04-Сен-2016 08:48

[Q] 

somik

Легенда

-Обитель Анубиса / House of Anubis-- Производство: Великобритания, США, Nickelodeon
Жанр: драма, детектив, семейный, 6+
Год выпуска: 2012 г.
Продолжительность: 00:11:00
Мировая премьера: 10 января 2012
Перевод: Профессиональный (полное дублирование) [канал Nickelodeon]
Режиссер: Тим Хоупвелл / Tim Hopewell, ...-В ролях: Алекс Сойер, Джейд Рэмси, Теси Дхенрадж, Наталиа Рамос, Брэд Кэвэна, Ана Мулвой-Тен, Бобби Локвуд, Юджин Саймон, Катрин Бэйли, Эмилия Джонс-Описание: Нина Мартин — американская девушка, которая жила со своей бабушкой с момента смерти её родителей. Нина была вынуждена переехать в другой город и поступить в элитную школу-интернат «Анубис».
Между тем, ещё одна жительница городка и популярная студентка Джой Мерсер, внезапно исчезает без предупреждений.
Что за тайны хранит элитная школа названая в честь тёмного божества Анубиса?-
Качество видео: WEB-DLRip
Контейнер: AVI
Видео кодек: XviD
Аудио кодек: MP3
Видео: 656x368 (1.78:1), 29.970 fps, XviD build 63 ~1090 kbps avg, 0.15 bit/pixel
Аудио: 48 kHz, MPEG Layer 3, 2 ch, ~128.00 kbps avg
Аудио #2: 48 kHz, MPEG Layer 3, 2 ch, ~128.00 kbps avg
Cубтитры: отсутствуют
Загадки. Тайны. Мистика.
Этот сериал — смесь мистики и комедии. Он совсем отличается от никелодеонских сериалов «Ай-Карли», «Биг Тайм Раш», «Виктория — победительница» и др.
Мне очень понравился этот сериал. Приятно смотреть от серии до серии, видеть, как длится история американской девушки, приехавшей в школу-пансион, который хранит много тайн и загадок.
Конечно, этот сериал не только мистика, не только драма, но и комедия. Можно от души посмеяться! Без таких героев, как Джером и Алфи, сериал был бы неинтересным. Они придают сериалу такой юмор, согласитесь?
Некоторые думают, что сериал «Обитель Анубиса» похож на «Гарри Поттера», некоторые это отрицают. Ну, да, он похож, но только чуть-чуть. И только несколько похожих вещей я заметила в сериале и фильме:
1. Гарри Поттер — Избранный, Джой Мерсер — Избранная.
2. Философский камень даёт бессмертие, Чаша Анкха тоже даёт.
3. В Дарах Смерти Гарри, Рон и Гермиона ищут крестражи, Нина, Фабиан, Эмбер, Патрисия и Алфи ищут части Анкха.
Но ведь ничего страшного, что «Гарри Поттер» и «Обитель Анубиса» похожи! Это вовсе не значит, что ОА скопировали с ГП! Это просто совпадение.
Итак, я ставлю оценку:
10 из 10
Общее
Полное имя : F:\ПОСЛЕДНИЕ ЗАГРУЗКИ\Обитель Анубиса\Obitel Anubisa.S02.2012.WEB-DLRip.[pirat.ca]\Obitel.Anubisa.(2.sezon.01-02.serii.iz.90).avi
Формат : AVI
Формат/Информация : Audio Video Interleave
Размер файла : 253 Мбайт
Продолжительность : 25 м.
Общий поток : 1365 Кбит/сек
Программа кодирования : VirtualDubMod 1.5.10.2 (build 2540/release)
Библиотека кодирования : VirtualDubMod build 2540/release
Видео
Идентификатор : 0
Формат : MPEG-4 Visual
Профиль формата : Advanced [email protected]
Параметр BVOP формата : 1
Параметр QPel формата : Нет
Параметр GMC формата : Без точки перехода
Параметр матрицы формата : Default (H.263)
Идентификатор кодека : XVID
Идентификатор кодека/Подсказка : XviD
Продолжительность : 25 м.
Битрейт : 1091 Кбит/сек
Ширина : 656 пикселей
Высота : 368 пикселей
Соотношение сторон : 16:9
Частота кадров : 29,970 (29970/1000) кадров/сек
Цветовое пространство : YUV
Субдискретизация насыщенности : 4:2:0
Битовая глубина : 8 бит
Тип развёртки : Прогрессивная
Метод сжатия : С потерями
Бит/(Пиксели*Кадры) : 0.151
Размер потока : 202 Мбайт (80%)
Библиотека кодирования : XviD 63
Аудио #1
Идентификатор : 1
Формат : MPEG Audio
Версия формата : Version 1
Профиль формата : Layer 3
Режим : Joint stereo
Расширение режима : MS Stereo
Идентификатор кодека : 55
Идентификатор кодека/Подсказка : MP3
Продолжительность : 25 м.
Вид битрейта : Постоянный
Битрейт : 128 Кбит/сек
Каналы : 2 канала
Частота : 48,0 КГц
Метод сжатия : С потерями
Размер потока : 23,7 Мбайт (9%)
Выравнивание : Соединение по промежуткам
Продолжительность промежутка : 33 мс. (1,00 видеокадр)
Время предзагрузки промежутка : 504 мс.
Библиотека кодирования : LAME3.98r
Настройки программы : -m j -V 4 -q 0 -lowpass 17 -b 128
Аудио #2
Идентификатор : 2
Формат : MPEG Audio
Версия формата : Version 1
Профиль формата : Layer 3
Режим : Joint stereo
Расширение режима : MS Stereo
Идентификатор кодека : 55
Идентификатор кодека/Подсказка : MP3
Продолжительность : 25 м.
Вид битрейта : Постоянный
Битрейт : 128 Кбит/сек
Каналы : 2 канала
Частота : 48,0 КГц
Метод сжатия : С потерями
Размер потока : 23,7 Мбайт (9%)
Выравнивание : Соединение по промежуткам
Продолжительность промежутка : 33 мс. (1,00 видеокадр)
Время предзагрузки промежутка : 504 мс.
Библиотека кодирования : LAME3.98r
Настройки программы : -m j -V 4 -q 0 -lowpass 17 -b 128
Download / Скачать

Хотите скачать бесплатно? Зарегистрируйтесь на сайте (ссылка на регистрацию). Pirat.ca - самый быстрый торрент трекер в рунете!

Как скачивать  ·   Что такое торрент  ·   Рейтинг и ограничения

Показать сообщения:    
Ответить на тему

Текущее время: Сегодня 05:53

Часовой пояс: GMT + 4



Вы не можете начинать темы
Вы не можете отвечать на сообщения
Вы не можете редактировать свои сообщения
Вы не можете удалять свои сообщения
Вы не можете голосовать в опросах
Вы не можете прикреплять файлы к сообщениям
Вы не можете скачивать файлы

▼ Вниз