ML
     
  Уважаемый Гость!
Вы можете поддержать проект и зарегистрироваться у наших партнеров - онлайн-стратегия MyLands. При регистрации в игре Вы получите код, который сможете активировать после регистрации на pirat.ca и получить 1000 дублонов.

Ваш код:
e93cd9e43017f251127f220889864c05934e61c6
 
     

Обитель Анубиса / House of Anubis / Сезон: 3 / Серии: 40 из 40 (Тим Хоупвелл / Tim Hopewell, ...) [2013 г., драма, детектив, семейный, 6+, SATRip] Dub (канал Nickelodeon)

Ответить на тему
 
Автор
Сообщение

Пост 04-Сен-2016 09:39

[Q] 

somik

Легенда

-Обитель Анубиса / House of Anubis-- Производство: Великобритания, США, Nickelodeon
Жанр: драма, детектив, семейный, 6+
Год выпуска: 2013 г.
Продолжительность: 00:22:00
Мировая премьера: 3 января 2013
Перевод: Профессиональный (полное дублирование) [канал Nickelodeon]
Режиссер: Тим Хоупвелл / Tim Hopewell, ...-В ролях: Алекс Сойер, Джейд Рэмси, Теси Дхенрадж, Наталиа Рамос, Брэд Кэвэна, Ана Мулвой-Тен, Бобби Локвуд, Юджин Саймон, Катрин Бэйли, Эмилия Джонс-Описание: Нина Мартин — американская девушка, которая жила со своей бабушкой с момента смерти её родителей. Нина была вынуждена переехать в другой город и поступить в элитную школу-интернат «Анубис».
Между тем, ещё одна жительница городка и популярная студентка Джой Мерсер, внезапно исчезает без предупреждений.
Что за тайны хранит элитная школа названая в честь тёмного божества Анубиса?-
Качество видео: SATRip
Контейнер: AVI
Видео кодек: XviD
Аудио кодек: AC3
Видео: 720x400 (1.80:1), 25 fps, XviD build 63 ~1642 kbps avg, 0.23 bit/pixel
Аудио: 48 kHz, AC3 Dolby Digital, 2/0 (L,R) ch, ~192 kbps
Cубтитры: отсутствуют
Общее
Полное имя : F:\ПОСЛЕДНИЕ ЗАГРУЗКИ\Обитель Анубиса\Obitel Anubisa.S03.2013.SATRip.[pirat.ca]\01.avi
Формат : AVI
Формат/Информация : Audio Video Interleave
Размер файла : 300 Мбайт
Продолжительность : 22 м.
Общий поток : 1845 Кбит/сек
Программа кодирования : VirtualDubMod 1.5.10.3 | www.virtualdub-fr.org || (build 2550/release)
Библиотека кодирования : VirtualDubMod build 2550/release
Видео
Идентификатор : 0
Формат : MPEG-4 Visual
Профиль формата : Advanced [email protected]
Параметр BVOP формата : 2
Параметр QPel формата : Нет
Параметр GMC формата : Без точки перехода
Параметр матрицы формата : Default (MPEG)
Идентификатор кодека : XVID
Идентификатор кодека/Подсказка : XviD
Продолжительность : 22 м.
Битрейт : 1643 Кбит/сек
Ширина : 720 пикселей
Высота : 400 пикселей
Соотношение сторон : 16:9
Частота кадров : 25,000 кадров/сек
Цветовое пространство : YUV
Субдискретизация насыщенности : 4:2:0
Битовая глубина : 8 бит
Тип развёртки : Прогрессивная
Метод сжатия : С потерями
Бит/(Пиксели*Кадры) : 0.228
Размер потока : 268 Мбайт (89%)
Библиотека кодирования : XviD 63
Аудио
Идентификатор : 1
Формат : AC-3
Формат/Информация : Audio Coding 3
Расширение режима : CM (complete main)
Параметр Endianness формата : Big
Идентификатор кодека : 2000
Продолжительность : 22 м.
Вид битрейта : Постоянный
Битрейт : 192 Кбит/сек
Каналы : 2 канала
Расположение каналов : Front: L R
Частота : 48,0 КГц
Частота кадров : 31,250 кадров/сек (1536 spf)
Метод сжатия : С потерями
Размер потока : 31,3 Мбайт (10%)
Выравнивание : Разделение по промежуткам
Продолжительность промежутка : 40 мс. (1,00 видеокадр)
Время предзагрузки промежутка : 500 мс.
Download / Скачать

Хотите скачать бесплатно? Зарегистрируйтесь на сайте (ссылка на регистрацию). Pirat.ca - самый быстрый торрент трекер в рунете!

Как скачивать  ·   Что такое торрент  ·   Рейтинг и ограничения

Показать сообщения:    
Ответить на тему

Текущее время: Сегодня 04:27

Часовой пояс: GMT + 4



Вы не можете начинать темы
Вы не можете отвечать на сообщения
Вы не можете редактировать свои сообщения
Вы не можете удалять свои сообщения
Вы не можете голосовать в опросах
Вы не можете прикреплять файлы к сообщениям
Вы не можете скачивать файлы

▼ Вниз