ML
     
  Уважаемый Гость!
Вы можете поддержать проект и зарегистрироваться у наших партнеров - онлайн-стратегия MyLands. При регистрации в игре Вы получите код, который сможете активировать после регистрации на pirat.ca и получить 1000 дублонов.

Ваш код:
c3360d664ceb84802c84b88ed062a5d134e2ba97
 
     

Зои Харт из южного штата / Hart of Dixie / Сезон: 1 / Серии: 22 из 22 (Дэвид Пэймер / David Paymer, ...) [2011 г., Лирическая комедия, WEB-DLRip] MVO (Gravi-TV / To4ka)

Ответить на тему
 
Автор
Сообщение

Пост 04-Сен-2016 11:15

[Q] 

somik

Легенда

-Зои Харт из южного штата / Hart of Dixie-- Производство: США
Жанр: Лирическая комедия
Год выпуска: 2011 г.
Продолжительность: 00:42:20
Мировая премьера: 26 сентября 2011
Перевод: Любительский (многоголосый, закадровый) [Gravi-TV / To4ka]
Режиссер: Дэвид Пэймер / David Paymer, ...-В ролях: Рэйчел Билсон, Джейми Кинг, Кресс Уильямс, Уилсон Бетел, Скотт Портер, Дебора С. Крэйг, Тим Мэтисон, Реджинальд ВелДжонсон, Росс Филипс, Эйза Дэвис и др.-Описание: Молодой врач из Нью-Йорка, по имени Зои Харт, отправляется на практику в небольшой городок на юге США, населенном необычными и эксцентричными личностями, и она всеми силами пытается адаптироваться на новом месте.-
Качество видео: WEB-DLRip
Контейнер: AVI
Видео кодек: XviD
Аудио кодек: MP3
Видео: 720x400 (1.80:1), 25 fps, XviD build 50 ~760 kbps avg, 0.11 bit/pixel
Аудио: 44.100 kHz, MPEG Layer 3, 2 ch, ~123.27 kbps avg
Cубтитры: отсутствуют
В ее жизни грядет резкий поворот на Юг
Даже завзятые ценители авторского кино нет-нет да и посмотрят в сотый, тысячный или миллионный раз «Москву слезам не верит», «Бриллиантовую руку» или любой другой старый, но такой любимый фильм. Причина — в том неповторимом настроении, умиротворении и душевном комфорте, которые дарят эти фильмы. Так и сериал «Сердце Дикси» настраивают зрителей на волну тепла, доброты и легкой сумасшедшести, которую чувствуешь, оказавшись среди родных и друзей.
От сюжета можно не ждать особых сюрпризов, тема городского врача в сельской местности уже не раз эксплуатировалась, ну так никто же не упрекает фильмы про влюбленных в том, что они вторичны. Сколько человек возьмется рассказывать одну историю, столько разных сюжетов и получится. В этом же конкретном случае я всегда с нетерпением жду нового повода улыбнуться, посмотрев на очередную авантюру доктора Зои Харт, многоходовую интригу от главной красавицы города Лемон Бриланд, проект по развлечению Блубела от мэра Левона Хейза, и за остальными причудами каждого жителя маленького городка, где все знают всех.
Море позитива, музыка в стиле кантри и прекрасное настроение гарантированы.
8 из 10
Общее
Полное имя : F:\ПОСЛЕДНИЕ ЗАГРУЗКИ\Hart of Dixie.S01.2011.WEB-DLRip.[pirat.ca]\Hart.of.Dixie.S01E01.Pilot.WEB-DLRip.Rus.Eng.[Gravi-TV]_xvid.avi
Формат : AVI
Формат/Информация : Audio Video Interleave
Размер файла : 272 Мбайт
Продолжительность : 42 м.
Режим общего битрейта : Переменный
Общий поток : 897 Кбит/сек
Программа кодирования : MEncoder Sherpya-SVN-r32492-4.2.5
Библиотека кодирования : MPlayer
Видео
Идентификатор : 0
Формат : MPEG-4 Visual
Профиль формата : [email protected]
Параметр BVOP формата : Нет
Параметр QPel формата : Нет
Параметр GMC формата : Без точки перехода
Параметр матрицы формата : Default (H.263)
Идентификатор кодека : XVID
Идентификатор кодека/Подсказка : XviD
Продолжительность : 42 м.
Битрейт : 761 Кбит/сек
Ширина : 720 пикселей
Высота : 400 пикселей
Соотношение сторон : 16:9
Частота кадров : 25,000 кадров/сек
Цветовое пространство : YUV
Субдискретизация насыщенности : 4:2:0
Битовая глубина : 8 бит
Тип развёртки : Прогрессивная
Метод сжатия : С потерями
Бит/(Пиксели*Кадры) : 0.106
Размер потока : 231 Мбайт (85%)
Библиотека кодирования : XviD 1.2.1 (UTC 2008-12-04)
Аудио
Идентификатор : 1
Формат : MPEG Audio
Версия формата : Version 1
Профиль формата : Layer 3
Режим : Joint stereo
Расширение режима : MS Stereo
Идентификатор кодека : 55
Идентификатор кодека/Подсказка : MP3
Продолжительность : 42 м.
Вид битрейта : Переменный
Битрейт : 123 Кбит/сек
Каналы : 2 канала
Частота : 44,1 КГц
Метод сжатия : С потерями
Размер потока : 37,3 Мбайт (14%)
Выравнивание : Соединение по промежуткам
Продолжительность промежутка : 26 мс. (0,65 видеокадр)
Время предзагрузки промежутка : 470 мс.
Download / Скачать

Хотите скачать бесплатно? Зарегистрируйтесь на сайте (ссылка на регистрацию). Pirat.ca - самый быстрый торрент трекер в рунете!

Как скачивать  ·   Что такое торрент  ·   Рейтинг и ограничения

Показать сообщения:    
Ответить на тему

Текущее время: Сегодня 10:05

Часовой пояс: GMT + 4



Вы не можете начинать темы
Вы не можете отвечать на сообщения
Вы не можете редактировать свои сообщения
Вы не можете удалять свои сообщения
Вы не можете голосовать в опросах
Вы не можете прикреплять файлы к сообщениям
Вы не можете скачивать файлы

▼ Вниз