ML
     
  Уважаемый Гость!
Вы можете поддержать проект и зарегистрироваться у наших партнеров - онлайн-стратегия MyLands. При регистрации в игре Вы получите код, который сможете активировать после регистрации на pirat.ca и получить 1000 дублонов.

Ваш код:
34514219cfad5497a1822ecc1269bea77988f9aa
 
     

Расследование Джордан (/ Crossing Jordan / Сезон: 1-6 / Серии: 117 из 117 (Аллан Аркуш / Allan Arkush, ...) [2001 г., детектив, HDTVRip] MVO (NovaFilm, 1001cinema)

Ответить на тему
 
Автор
Сообщение

Пост 04-Сен-2016 11:37

[Q] 

somik

Легенда

-Расследование Джордан / Crossing Jordan-- Производство: США, NBC Universal Television, ...
Жанр: детектив
Год выпуска: 2001 г.
Продолжительность: 00:44:00
Мировая премьера: 24 сентября 2001
Перевод: Профессиональный (многоголосый, закадровый) [NovaFilm, 1001cinema]
Режиссер: Аллан Аркуш / Allan Arkush, ...-В ролях: Джилл Хеннесси, Мигель Феррер, Рави Капур, Стив Валентайн, Кэтрин Хан, Джерри О’Коннелл, Кен Ховард, Эми Колигадо, Иван Сергей, Махершала Али-Описание: Джордан Кэвано — умная, яркая и гордая девушка, выбравшая необычную профессию. Работая патологоанатомом, она готова пойти на все ради раскрытия самых запутанных преступлений. Когда полиция бессильна, Джордан проводит собственные расследования — ведь она убеждена, что мертвое тело способно выдать самые сокровенные тайны.
Кажется, Джордан способна раскрыть любое, даже самое запутанное преступление. Но и она не всесильна — ей не дает покоя убийство, не поддающееся никакой логике, — убийство ее собственной матери, произошедшее много лет назад. Пытаясь раскрыть эту страшную тайну, собирая новые улики и свидетельские показания, Джордан начинает понимать, что все, что она знала о своей семье, лишь в малой степени соответствует действительности…-
Качество видео: HDTVRip
Контейнер: AVI
Видео кодек: XviD
Аудио кодек: MP3
Видео: 624x352 (1.77:1), 25 fps, XviD build 50 ~765 kbps avg, 0.14 bit/pixel
Аудио: 44.100 kHz, MPEG Layer 3, 2 ch, ~106.03 kbps avg
Cубтитры: отсутствуют
Вообще я поклонник доктора Хауса, нашла данный сериал через Стива Валентайна, который, как известно был приглашенным актером в Докторе Хаусе. Сериалы и их главные герои очень похожи. Например, в привычки Джордан, как и у Хауса, входит залезать в квартиры жертв (у Хауса — пациентов), оба они одиноки и имеют некоторые особенности характера, делающих их ассоциальными. Остается только гадать, кто из режиссеров был первооткрывателем своего героя.
Я, как врач, с удовольствием смотрю оба сериала
Общее
Полное имя : F:\ПОСЛЕДНИЕ ЗАГРУЗКИ\Rassledovanija Djordan.[pirat.ca]\2\Crossing Jordan S02 e01HDTVRip Rus_xvid.avi
Формат : AVI
Формат/Информация : Audio Video Interleave
Размер файла : 274 Мбайт
Продолжительность : 43 м.
Режим общего битрейта : Переменный
Общий поток : 884 Кбит/сек
Программа кодирования : MEncoder Sherpya-SVN-r32492-4.2.5
Библиотека кодирования : MPlayer
Видео
Идентификатор : 0
Формат : MPEG-4 Visual
Профиль формата : [email protected]
Параметр BVOP формата : Нет
Параметр QPel формата : Нет
Параметр GMC формата : Без точки перехода
Параметр матрицы формата : Default (H.263)
Идентификатор кодека : XVID
Идентификатор кодека/Подсказка : XviD
Продолжительность : 43 м.
Битрейт : 765 Кбит/сек
Ширина : 624 пикселя
Высота : 352 пикселя
Соотношение сторон : 16:9
Частота кадров : 25,000 кадров/сек
Цветовое пространство : YUV
Субдискретизация насыщенности : 4:2:0
Битовая глубина : 8 бит
Тип развёртки : Прогрессивная
Метод сжатия : С потерями
Бит/(Пиксели*Кадры) : 0.139
Размер потока : 237 Мбайт (87%)
Библиотека кодирования : XviD 1.2.1 (UTC 2008-12-04)
Аудио
Идентификатор : 1
Формат : MPEG Audio
Версия формата : Version 1
Профиль формата : Layer 3
Режим : Joint stereo
Расширение режима : MS Stereo
Идентификатор кодека : 55
Идентификатор кодека/Подсказка : MP3
Продолжительность : 43 м.
Вид битрейта : Переменный
Битрейт : 106 Кбит/сек
Каналы : 2 канала
Частота : 44,1 КГц
Метод сжатия : С потерями
Размер потока : 32,8 Мбайт (12%)
Выравнивание : Соединение по промежуткам
Продолжительность промежутка : 26 мс. (0,65 видеокадр)
Время предзагрузки промежутка : 156 мс.
Библиотека кодирования : LAME3.98.4
Download / Скачать

Хотите скачать бесплатно? Зарегистрируйтесь на сайте (ссылка на регистрацию). Pirat.ca - самый быстрый торрент трекер в рунете!

Как скачивать  ·   Что такое торрент  ·   Рейтинг и ограничения

Показать сообщения:    
Ответить на тему

Текущее время: Сегодня 07:48

Часовой пояс: GMT + 4



Вы не можете начинать темы
Вы не можете отвечать на сообщения
Вы не можете редактировать свои сообщения
Вы не можете удалять свои сообщения
Вы не можете голосовать в опросах
Вы не можете прикреплять файлы к сообщениям
Вы не можете скачивать файлы

▼ Вниз