ML
     
  Уважаемый Гость!
Вы можете поддержать проект и зарегистрироваться у наших партнеров - онлайн-стратегия MyLands. При регистрации в игре Вы получите код, который сможете активировать после регистрации на pirat.ca и получить 1000 дублонов.

Ваш код:
0fcd44bd35319f69313aa6e53b31c51cbff1c942
 
     

Тайны острова Мако / Mako Mermaids / Сезон: 1 / Серии: 26 из 26 (Грант Браун / Grant Brown) [2013 г., фэнтези, драма, мелодрама, комедия, приключения, семейный, WEB-DLRip] Dub ("Кириллица" по заказу телеканала "Disney")

Ответить на тему
 
Автор
Сообщение

Пост 09-Сен-2016 02:17

[Q] 

somik

Легенда

-Тайны острова Мако / Русалки Макао / Mako Mermaids-- Производство: Австралия, Jonathan M. Shiff Productions
Жанр: фэнтези, драма, мелодрама, комедия, приключения, семейный
Год выпуска: 2013 г.
Продолжительность: 00:24:30
Мировая премьера: 26 июля 2013
Российская премьера: 1 сентября 2014
Перевод: Профессиональный (полное дублирование) ["Кириллица" по заказу телеканала "Disney"]
Режиссер: Грант Браун / Grant Brown-В ролях: Чай Ромруен, Доминик Дойчер, Джемма Форсайт, Люси Фрай, Айви Латимер, Эми Раффл, Джо Дэвидсон, Эмма Райт, Керит Эткинсон, ...-Описание: Сериал возвращает нас в уже знакомый лунный бассейн. Когда 15-летний Зак отправляется на пикник на остров Мако, то даже не подозревает, что каждый его шаг внимательно отслеживается тремя русалками — Сиреной, Никси и Лилой, которые тщательно охраняют остров от постороннего вмешательства. Но в полнолуние Зак контактирует с водой из лунного пруда и обретает магические силы. Проснувшись утром дома, он обнаружил вместо ног плавник, а также способность управлять водой. Теперь Зак приносит немало сюрпризов для русалок с острова Мако… Русалки теперь должны стать людьми и найти Зака, чтобы отобрать его магические силы, или их исключат из сообщества русалок.-
Качество видео: WEB-DLRip
Контейнер: AVI
Видео кодек: XviD
Аудио кодек: AC3
Видео: 720x400 (1.80:1), 25 fps, XviD build 65 ~1588 kbps avg, 0.22 bit/pixel :
Аудио: 48 kHz, AC3 Dolby Digital, 2/0 (L,R) ch, ~192 kbps
Аудио #2: 48 kHz, AC3 Dolby Digital, 2/0 (L,R) ch, ~192 kbps
Cубтитры: отсутствуют
Бюджет съёмок составил $12,3 млн
Хвосты русалок весили всего 12 килограмм.
Снова Лунный Бассейн
Я большая поклонница сериала Н2О: просто добавь воды. Как только я узнала, что собираются снимать спинн-офф «Русалки Мако», да еще и ознакомившись с подозрительным сюжетом — я мысленно отложила сериал «на полку». И решила, что если и посмотрю его — лишь из любопытства и для сравнения его с моим любимым «h2о».
Вот настал день и я решила его посмотреть. Первая серия мне если честно не очень понравилась, лунный пруд выгляди слишком «искусственно». И если в н2о бассейн менялся с каждым сезоном, то это было не так заметно. Что же, новый сериал — новые декорации. Мне почему то сразу не понравилась заставка и музыка. Вообщем, мои ожидания оправдались и я отложила сериал.
Но по стечению обстоятельств у меня появилась куча свободного времени и я решила продолжить просмотр — настолько ли плох сериал? И чудо совершилось — музыка из заставки крутиться в голове, лица героев приятны и гармоничны. Буквально за пару дней я пересмотрела весь сезон. И тут я поняла свою ошибку — я постоянно пыталась сравнить н2о с Русалками Мако — это неправильно. Русалки Мако — новая, увлекательная история. Были небольшие погрешности — где-то банальные диологи, недоработка спецэффектов(снег), или ярко выраженные ноги в хвосте(такого не было в н2о). Но это все меркнет на фоне прекрасной и интересной истории. Мне безумно понравился сериал и теперь он может составить конкуренцию моему любимому «h2o jist add water».
Но я немного с испугом смотрю на промо 2-ого сезона — две главные героини заменены. Это пугает. Но я с надеждой смотрю в будущее.
10 из 10
бщее
Полное имя : F:\ПОСЛЕДНИЕ ЗАГРУЗКИ\Mako Mermaids.S01.[pirat.ca]\1x01 - Изгои (Outcasts).avi
Формат : AVI
Формат/Информация : Audio Video Interleave
Размер файла : 342 Мбайт
Продолжительность : 24 м.
Общий поток : 1988 Кбит/сек
Название фильма : 1x01 - Изгои (Outcasts)
Программа кодирования : VirtualDubMod 1.5.10.2 (build 2540/release)
Видео
Идентификатор : 0
Формат : MPEG-4 Visual
Профиль формата : Advanced [email protected]
Параметр BVOP формата : 1
Параметр QPel формата : Нет
Параметр GMC формата : Без точки перехода
Параметр матрицы формата : Выборочная
Идентификатор кодека : XVID
Идентификатор кодека/Подсказка : XviD
Продолжительность : 24 м.
Битрейт : 1590 Кбит/сек
Ширина : 720 пикселей
Высота : 400 пикселей
Соотношение сторон : 16:9
Частота кадров : 25,000 кадров/сек
Цветовое пространство : YUV
Субдискретизация насыщенности : 4:2:0
Битовая глубина : 8 бит
Тип развёртки : Прогрессивная
Метод сжатия : С потерями
Бит/(Пиксели*Кадры) : 0.221
Размер потока : 273 Мбайт (80%)
Библиотека кодирования : XviD 65
Аудио #1
Идентификатор : 1
Формат : AC-3
Формат/Информация : Audio Coding 3
Расширение режима : CM (complete main)
Параметр Endianness формата : Big
Идентификатор кодека : 2000
Продолжительность : 24 м.
Вид битрейта : Постоянный
Битрейт : 192 Кбит/сек
Каналы : 2 канала
Расположение каналов : Front: L R
Частота : 48,0 КГц
Частота кадров : 31,250 кадров/сек (1536 spf)
Метод сжатия : С потерями
Размер потока : 33,0 Мбайт (10%)
Выравнивание : Разделение по промежуткам
Продолжительность промежутка : 40 мс. (1,00 видеокадр)
Время предзагрузки промежутка : 500 мс.
Заголовок : Профессиональный (полное дублирование) Disney
Аудио #2
Идентификатор : 2
Формат : AC-3
Формат/Информация : Audio Coding 3
Расширение режима : CM (complete main)
Параметр Endianness формата : Big
Идентификатор кодека : 2000
Продолжительность : 24 м.
Вид битрейта : Постоянный
Битрейт : 192 Кбит/сек
Каналы : 2 канала
Расположение каналов : Front: L R
Частота : 48,0 КГц
Частота кадров : 31,250 кадров/сек (1536 spf)
Метод сжатия : С потерями
Размер потока : 33,0 Мбайт (10%)
Выравнивание : Разделение по промежуткам
Продолжительность промежутка : 40 мс. (1,00 видеокадр)
Время предзагрузки промежутка : 500 мс.
Заголовок : Английский
Download / Скачать

Хотите скачать бесплатно? Зарегистрируйтесь на сайте (ссылка на регистрацию). Pirat.ca - самый быстрый торрент трекер в рунете!

Как скачивать  ·   Что такое торрент  ·   Рейтинг и ограничения

Показать сообщения:    
Ответить на тему

Текущее время: Сегодня 02:12

Часовой пояс: GMT + 4



Вы не можете начинать темы
Вы не можете отвечать на сообщения
Вы не можете редактировать свои сообщения
Вы не можете удалять свои сообщения
Вы не можете голосовать в опросах
Вы не можете прикреплять файлы к сообщениям
Вы не можете скачивать файлы

▼ Вниз