ML
     
  Уважаемый Гость!
Вы можете поддержать проект и зарегистрироваться у наших партнеров - онлайн-стратегия MyLands. При регистрации в игре Вы получите код, который сможете активировать после регистрации на pirat.ca и получить 1000 дублонов.

Ваш код:
47bfc18b89c74e4ae0d974e9b6943639e2bff08e
 
     

Синдбад / Sinbad / Сезон: 1 / Серии: 12 из 12 (Энди Уилсон / Andy Wilson, ...) [2012 г., фэнтези, боевик, приключения, семейный, 12+, HD DVDRip-AVC, 720p] Dub + MVO (ROOM13 2012, Baibako)

Ответить на тему
 
Автор
Сообщение

Пост 13-Сен-2016 17:26

[Q] 

somik

Легенда

-Синдбад / Sinbad-- Производство: Великобритания, Impossiblepictures Ltd.
Жанр: фэнтези, боевик, приключения, семейный, 12+
Год выпуска: 2012 г.
Продолжительность: 00:43:00
Мировая премьера: 8 июля 2012
Перевод: Профессиональный (полное дублирование) [ROOM13 2012]
Перевод 2: Профессиональный (многоголосый, закадровый) [Baibako]
Режиссер: Энди Уилсон / Andy Wilson, ...-В ролях: Эллиот Найт, Дмитрий Леонидас, Марама Корлетт, Эллиот Коуэн, Навин Эндрюс, Орла Брэйди, Софи Оконедо, ...-Описание: Сбежавший из родного города Басра, проклятый собственной бабушкой за неосторожные действия, приведшие к смерти брата, Синдбад оказывается в открытом море на корабле «Провиденье» вместе с целым рядом колоритных персонажей. Пережив неистовый шторм, Синдбад и его товарищи по плаванию вынуждены сплотиться перед лицом своих внутренних демонов, надежд, привязанностей и страхов. Синдбаду предстоят героические странствия, чтобы снять с себя проклятье и принять свою судьбу.-
Качество видео: HD DVDRip-AVC
Контейнер: MKV
Стандарт разрешения: 720p
Видео кодек: MPEG4 AVC
Аудио кодек: MP3
Видео: AVC [email protected] 960x718 3926 Кбит/сек 25,000 кадров/сек 0.160 Bits/Pixel
Аудио: 48 kHz, MPEG Layer 3, 2 ch, ~128.00 kbps
Аудио #2: AC3 48000Hz 6 каналов 384Kbps
Cубтитры: отсутствуют
Каждое из увиденных тобою видений может оказаться твоим «завтра»… (с)
Что сказать? Приглянулся данный сериал! С самого детства хотелось увидеть полную историю моряка Синдбада, так сказать увидеть своими глазами, с чего же все начиналось. Да и сам жанр для меня всегда являлся приоритетным при выборе следующего фильма для просмотра.
Ну а теперь ближе к самому сериалу.. Что сразу бросилось мне в глаза, так это то, что создатели не собираются хоть на йоту ускоряться в раскрытии всех сюжетных линий. Это плюс, буду надеяться, что сериал продлят на последующие сезоны и нам доведется узнать, чем же все закончится. И я бы не стал на вашем месте настраиваться заранее на счастливый конец. Ведь это все таки не приквел диснеевского шедевра!
Актерский состав старается на уровне — все новенькие без звездных ролей в прошлом. Исключением может считаться разве что исполнитель роли лорда Акбари (Нэйвин Эндрюс), сыгравший одну из главных ролей в сериале «Lost».
Конечно, видны некоторые шероховатости при прорисовке мифических чудовищ Персидского залива. Но я к этому отнесусь спокойно — все-таки бюджет не аватаровский, да и не ради этого снимают подобные сериалы. Зато что уж нравится в каждой серии, так это демонстрируемые с высоты птичьего полета пейзажи Басры и островов, посещаемых Синдбадом (Эллиот Найт) и его командой.
Подводя итог, добавлю, что буду с нетерпением ждать продолжения эпоса. Могу порекомендовать всем, кто в детстве любил восточные сказки и, став взрослым, порой продолжает верить в чудеса!
8 из 10
бщее
Уникальный идентификатор : 205953857629295137632527900175964077195 (0x9AF1452902E3677282687D87F2B47C8B)
Полное имя : D:\D\Синбад\Sinbad.2012.S01.720p.WEB-DL.Dub.BaibaKo.tv.[pirat.ca]\Sinbad.s01e01.720p.WEB-DL.Dub.BaibaKo.tv.mkv
Формат : Matroska
Версия формата : Version 2
Размер файла : 1,36 Гбайт
Продолжительность : 42 м.
Общий поток : 4534 Кбит/сек
Дата кодирования : UTC 2016-09-13 11:16:22
Программа кодирования : mkvmerge v5.3.0 ('I could have danced') built on Feb 9 2012 10:38:07
Библиотека кодирования : libebml v1.2.3 + libmatroska v1.3.0
Видео
Идентификатор : 1
Формат : AVC
Формат/Информация : Advanced Video Codec
Профиль формата : [email protected]
Параметр CABAC формата : Нет
Параметр ReFrames формата : 2 кадра
Идентификатор кодека : V_MPEG4/ISO/AVC
Продолжительность : 42 м.
Битрейт : 3932 Кбит/сек
Ширина : 960 пикселей
Высота : 718 пикселей
Соотношение сторон : 16:9
Режим частоты кадров : Постоянный
Частота кадров : 25,000 кадров/сек
Цветовое пространство : YUV
Субдискретизация насыщенности : 4:2:0
Битовая глубина : 8 бит
Тип развёртки : Прогрессивная
Бит/(Пиксели*Кадры) : 0.228
Размер потока : 1,18 Гбайт (87%)
Язык : English
Default : Да
Forced : Да
Цветовой диапазон : Limited
Основные цвета : BT.709
Характеристики трансфера : BT.709
Коэффициенты матрицы : BT.709
Аудио #1
Идентификатор : 2
Формат : MPEG Audio
Версия формата : Version 1
Профиль формата : Layer 3
Режим : Joint stereo
Расширение режима : MS Stereo
Идентификатор кодека : A_MPEG/L3
Идентификатор кодека/Подсказка : MP3
Продолжительность : 42 м.
Вид битрейта : Постоянный
Битрейт : 128 Кбит/сек
Каналы : 2 канала
Частота : 48,0 КГц
Метод сжатия : С потерями
Размер потока : 39,4 Мбайт (3%)
Заголовок : Dub|ROOM13|Stereo|2 ch
Язык : Russian
Default : Да
Forced : Нет
Аудио #2
Идентификатор : 3
Формат : AC-3
Формат/Информация : Audio Coding 3
Расширение режима : CM (complete main)
Параметр Endianness формата : Big
Идентификатор кодека : A_AC3
Продолжительность : 42 м.
Вид битрейта : Постоянный
Битрейт : 384 Кбит/сек
Каналы : 6 каналов
Расположение каналов : Front: L C R, Side: L R, LFE
Частота : 48,0 КГц
Частота кадров : 31,250 кадров/сек (1536 spf)
Метод сжатия : С потерями
Размер потока : 118 Мбайт (8%)
Заголовок : Rus|BaibaKo.tv| DD5.1
Язык : Russian
Default : Нет
Forced : Да
Download / Скачать

Хотите скачать бесплатно? Зарегистрируйтесь на сайте (ссылка на регистрацию). Pirat.ca - самый быстрый торрент трекер в рунете!

Как скачивать  ·   Что такое торрент  ·   Рейтинг и ограничения

Показать сообщения:    
Ответить на тему

Текущее время: Сегодня 07:05

Часовой пояс: GMT + 4



Вы не можете начинать темы
Вы не можете отвечать на сообщения
Вы не можете редактировать свои сообщения
Вы не можете удалять свои сообщения
Вы не можете голосовать в опросах
Вы не можете прикреплять файлы к сообщениям
Вы не можете скачивать файлы

▼ Вниз