ML
     
  Уважаемый Гость!
Вы можете поддержать проект и зарегистрироваться у наших партнеров - онлайн-стратегия MyLands. При регистрации в игре Вы получите код, который сможете активировать после регистрации на pirat.ca и получить 1000 дублонов.

Ваш код:
a6d1ef7ff63e237add5a4c8b21d8aa937c5e9b4b
 
     

Красавица и чудовище / Beauty and the Beast / Сезон: 4 / Серии: 13 из 13 (Стюарт Гиллард / Stuart Gillard, ...) [2016 г., триллер, драма, детектив, фантастика, WEB-DLRip] MVO (LostFilm)

Ответить на тему
 
Автор
Сообщение

Пост 18-Сен-2016 11:37

[Q] 

somik

Легенда

-Красавица и чудовище / Beauty and the Beast-- Производство: Канада
Жанр: триллер, драма, детектив, фантастика
Год выпуска: 2016 г.
Продолжительность: 00:43:00
Мировая премьера: 2 июня 2016
Перевод: Профессиональный (многоголосый, закадровый) [LostFilm]
Режиссер: Стюарт Гиллард / Stuart Gillard, ...-В ролях: Кристин Кройк, Джей Райан, Остин Басис, Нина Лизандрелло, Макс Браун, Брайан Дж. Уайт, Николь Гэйл Андерсон, Сендхил Рамамурти и др.-Описание: В центре сюжета находится умный, жесткий и уверенный в себе детектив убойного отдела Кэтрин Чандлер, которая начинает работать в паре с доктором Винсентом Келлером, бывшим солдатом, который стал жертвой медицинских опытов, вследствие чего теперь обладает огромной физической силой. Вместе они расследуют самые жестокие преступления, совершенные в Нью-Йорке.-
Качество видео: WEB-DLRip
Контейнер: AVI
Видео кодек: XviD
Аудио кодек: MP3
Видео: 720x400 (1.80:1), 23.976 fps, XviD build 50 ~1558 kbps avg, 0.23 bit/pixel
Аудио: 48 kHz, MPEG Layer 3, 2 ch, ~188.02 kbps avg
Cубтитры: отсутствуют
Сериал снят по мотивам сказки Жанны-Мари Лепренс де Бомон «Красавица и чудовище» (La Belle et la Bête, 1757).
Общее
Полное имя : E:\Красавица и чудовище\Beauty and the Beast.S04.2016.WEB-DLRip.LostFilm.[pirat.ca]\Beauty.and.the.Beast.S04E01.rus.LostFilm.TV.avi
Формат : AVI
Формат/Информация : Audio Video Interleave
Размер файла : 524 Мбайт
Продолжительность : 41 м.
Режим общего битрейта : Переменный
Общий поток : 1760 Кбит/сек
Название фильма : Beauty.and.the.Beast.S04E01.rus.LostFilm.TV
Программа кодирования : Nandub v1.0rc2
Видео
Идентификатор : 0
Формат : MPEG-4 Visual
Профиль формата : Advanced [email protected]
Параметр BVOP формата : Нет
Параметр QPel формата : Нет
Параметр GMC формата : Без точки перехода
Параметр матрицы формата : Default (H.263)
Идентификатор кодека : XVID
Идентификатор кодека/Подсказка : XviD
Продолжительность : 41 м.
Битрейт : 1559 Кбит/сек
Ширина : 720 пикселей
Высота : 400 пикселей
Соотношение сторон : 16:9
Частота кадров : 23,976 (23976/1000) кадра/сек
Цветовое пространство : YUV
Субдискретизация насыщенности : 4:2:0
Битовая глубина : 8 бит
Тип развёртки : Прогрессивная
Метод сжатия : С потерями
Бит/(Пиксели*Кадры) : 0.226
Размер потока : 464 Мбайт (89%)
Библиотека кодирования : XviD 1.2.1 (UTC 2008-12-04)
Аудио
Идентификатор : 1
Формат : MPEG Audio
Версия формата : Version 1
Профиль формата : Layer 3
Режим : Joint stereo
Расширение режима : MS Stereo
Идентификатор кодека : 55
Идентификатор кодека/Подсказка : MP3
Продолжительность : 41 м.
Вид битрейта : Переменный
Битрейт : 192 Кбит/сек
Каналы : 2 канала
Частота : 48,0 КГц
Метод сжатия : С потерями
Размер потока : 56,0 Мбайт (11%)
Выравнивание : Соединение по промежуткам
Продолжительность промежутка : 24 мс. (0,58 видеокадр)
Время предзагрузки промежутка : 490 мс.
Библиотека кодирования : LAME3.97b
Настройки программы : -m j -V 4 -q 3 -lowpass 18.6 --abr 192
Download / Скачать

Хотите скачать бесплатно? Зарегистрируйтесь на сайте (ссылка на регистрацию). Pirat.ca - самый быстрый торрент трекер в рунете!

Как скачивать  ·   Что такое торрент  ·   Рейтинг и ограничения

Показать сообщения:    
Ответить на тему

Текущее время: Сегодня 13:36

Часовой пояс: GMT + 4



Вы не можете начинать темы
Вы не можете отвечать на сообщения
Вы не можете редактировать свои сообщения
Вы не можете удалять свои сообщения
Вы не можете голосовать в опросах
Вы не можете прикреплять файлы к сообщениям
Вы не можете скачивать файлы

▼ Вниз