ML
     
  Уважаемый Гость!
Вы можете поддержать проект и зарегистрироваться у наших партнеров - онлайн-стратегия MyLands. При регистрации в игре Вы получите код, который сможете активировать после регистрации на pirat.ca и получить 1000 дублонов.

Ваш код:
ba41f7961e0b4717aed6a401d955262223b8f6c4
 
     

Пароль: Вечность / Code Name: Eternity / Сезон: 1 / Серии: 26 из 26 (Уильям Фрюит / William Fruet, ...) [2000 г., фантастика, боевик, криминал, приключения, TVRip] MVO (РЕН-ТВ (+BaibaKo))

Ответить на тему
 
Автор
Сообщение

Пост 18-Сен-2016 17:33

[Q] 

somik

Легенда

-Пароль: Вечность / Code Name: Eternity-- Производство: Канада, США, Франция, Dune Productions, Protocol Entertainment, UFA International Film & TV Production GmbH
Жанр: фантастика, боевик, криминал, приключения
Год выпуска: 2000 г.
Продолжительность: 00:45:00
Мировая премьера: 14 мая 2000
Перевод: Профессиональный (многоголосый, закадровый) [РЕН-ТВ (+BaibaKo)]
Режиссер: Уильям Фрюит / William Fruet, ...-В ролях: Cameron Bancroft / Кэмерон Бэнкрофт, Ingrid Kavelaars / Ингрид Кавелаарс, Gordon Currie / Гордон Курри, Olivier Gruner / Оливье Грюнер, Andrew Gillies / Эндрю Гиллис, Joseph Baldwin / Джозеф Болдуин, Hannes Jaenicke / Ханнес Янике-Описание: Этаниель, пришелец из отдаленной галактики, принимает человеческий облик, чтобы поймать инопланетного преступника Дэвида Бэннинга. Прибыв в наш мир, Этаниель пытается понять людей: как они думают, как общаются, а доктор Лора Китинг помогает ему в этом, понять сущность «человеческого пути». В это время он разыскивает Бэннинга, зная его тайную цель — найти Торбера, пропавшего брата Этаниеля. Дело в том, что Торбер, блестящий ученый, первоначально работал с Бэннингом, но сбежал после того, как узнал его реальный замысел — полное разрушение всей человеческой жизни на Земле…-
Качество видео: TVRip
Контейнер: AVI
Видео кодек: XviD
Аудио кодек: MP3
Видео: 640x352 (1.82:1), 25 fps, XviD build 50 ~732 kbps avg, 0.13 bit/pixel
Аудио: 44.100 kHz, MPEG Layer 3, 2 ch, ~119.19 kbps avg
Cубтитры: отсутствуют
Общее
Полное имя : F:\ПОСЛЕДНИЕ ЗАГРУЗКИ\Parolj-VeCHnostj.S01.1999..[pirat.ca]\1x01 Ethaniel's Story [РЕН-ТВ].avi
Формат : AVI
Формат/Информация : Audio Video Interleave
Размер файла : 278 Мбайт
Продолжительность : 44 м.
Режим общего битрейта : Переменный
Общий поток : 865 Кбит/сек
Программа кодирования : MEncoder Sherpya-SVN-r32492-4.2.5
Видео
Идентификатор : 0
Формат : MPEG-4 Visual
Профиль формата : [email protected]
Параметр BVOP формата : Нет
Параметр QPel формата : Нет
Параметр GMC формата : Без точки перехода
Параметр матрицы формата : Default (H.263)
Идентификатор кодека : XVID
Идентификатор кодека/Подсказка : XviD
Продолжительность : 44 м.
Битрейт : 733 Кбит/сек
Ширина : 640 пикселей
Высота : 352 пикселя
Соотношение сторон : 16:9
Частота кадров : 25,000 кадров/сек
Цветовое пространство : YUV
Субдискретизация насыщенности : 4:2:0
Битовая глубина : 8 бит
Тип развёртки : Прогрессивная
Метод сжатия : С потерями
Бит/(Пиксели*Кадры) : 0.130
Размер потока : 236 Мбайт (85%)
Библиотека кодирования : XviD 1.2.1 (UTC 2008-12-04)
Аудио
Идентификатор : 1
Формат : MPEG Audio
Версия формата : Version 1
Профиль формата : Layer 3
Режим : Joint stereo
Расширение режима : MS Stereo
Идентификатор кодека : 55
Идентификатор кодека/Подсказка : MP3
Продолжительность : 44 м.
Вид битрейта : Переменный
Битрейт : 119 Кбит/сек
Каналы : 2 канала
Частота : 44,1 КГц
Метод сжатия : С потерями
Размер потока : 38,3 Мбайт (14%)
Выравнивание : Соединение по промежуткам
Продолжительность промежутка : 26 мс. (0,65 видеокадр)
Время предзагрузки промежутка : 521 мс.
Download / Скачать

Хотите скачать бесплатно? Зарегистрируйтесь на сайте (ссылка на регистрацию). Pirat.ca - самый быстрый торрент трекер в рунете!

Как скачивать  ·   Что такое торрент  ·   Рейтинг и ограничения



Последний раз редактировалось: somik (2016-09-18 17:47), всего редактировалось 1 раз

somik ®

Легенда

27159

Пост 18-Сен-2016 17:38 (спустя 5 минут)

[Q] 

Ребята, извините, пожалуйста!!! В трёх сериях - нет перевода: 15, 16, 17. В нескольких есть локауты без перевода. Мой любимый сериал, а так бы не посмел некондицию выставлять! Да там и школьного знания языка достаточно... Просто - невероятно!!! Во всей сети - один вариант сериала (неделю искал, честно!)... dk bu

_________________
Всё когда-нибудь уже было... В интернете!
[Профиль]  [ЛС] 
Показать сообщения:    
Ответить на тему

Текущее время: Сегодня 14:48

Часовой пояс: GMT + 4



Вы не можете начинать темы
Вы не можете отвечать на сообщения
Вы не можете редактировать свои сообщения
Вы не можете удалять свои сообщения
Вы не можете голосовать в опросах
Вы не можете прикреплять файлы к сообщениям
Вы не можете скачивать файлы

▼ Вниз