ML
     
  Уважаемый Гость!
Вы можете поддержать проект и зарегистрироваться у наших партнеров - онлайн-стратегия MyLands. При регистрации в игре Вы получите код, который сможете активировать после регистрации на pirat.ca и получить 1000 дублонов.

Ваш код:
8b752b428cf60a012c159dcae592cd1392170115
 
     

Королева юга / Queen of the South / Сезон: 1 / Серии: 13 из 13 (Мэттью Пенн / Matthew Penn, ...) [2016 г., боевик, триллер, драма, криминал, WEB-DLRip-AVC] MVO (LostFilm) + Original (Eng)

Ответить на тему
 
Автор
Сообщение

Пост 20-Сен-2016 18:23

[Q] 

somik

Легенда

-Королева юга / Queen of the South-- Производство: США, Frequency Films, Friendly Films, Plural Entertainment, USA Television Network
Жанр: боевик, триллер, драма, криминал
Год выпуска: 2016 г.
Продолжительность: 00:44:00
Мировая премьера: 23 июня 2016
Перевод: Профессиональный (многоголосый, закадровый) [LostFilm]
Оригинальный аудиопоток: английский
Режиссер: Мэттью Пенн / Matthew Penn, ...-В ролях: Вероника Фалькон, Алиси Брага, Адольфо Альварез, Аннабелль Джонс, Жустина Мачадо, Питер Гадиот, Херардо Тарасена, Эбби Гланц-Описание: После убийства возлюбленного бедная юная Тереса Мендоса была вынуждена покинуть родную Мексику и затеряться в Техасе. Вскоре, оценив ум и предприимчивость девушки, ее приглашает к себе местная наркобаронесса Камила. Она намерена разрушить бизнес своего мужа дона Эпифанио руками гостьи, но Тереса слишком умна, чтобы стать пешкой в чьей-то игре. В США у неординарной мексиканки начинается совершенно новая жизнь, ведь она понимает, что и сама много смыслит в торговле запрещенными веществами и является гораздо более прагматичной и расчетливой, нежели ее боссы. Полезные люди помогают Мендосе войти в этот бизнес, и она сначала осторожно, а потом все смелее начинает восходить по лестнице, усыпанной первосортным кокаином. Так, поднявшись с самого дна, главная героиня заполучает целый мир. Виртуозно манипулируя друзьями и врагами, конкурентами и коллегами, полицией и своими мужчинами, успевая повсюду и никогда не оставляя улик, молодая, сильная, уверенная в себе Тереса Мендоса занимает трон Королевы Юга. Теперь она не боится ничего и никого, правда, расплата за такой стремительный взлет может оказаться очень и очень серьезной…-
Качество видео: WEB-DLRip-AVC
Контейнер: MKV
Видео кодек: MPEG4 AVC
Аудио кодек: AC3
Видео: 1024x576, 23.976 fps, MPEG-4 AVC ~2 000 kbps avg
Аудио: 48.0 kHz, AC3 Dolby Digital, 2/0 (L,R) ch, ~384 kbps
Аудио #2: 48.0 kHz, AC3 Dolby Digital, 2/0 (L,R) ch, ~384 kbps
Cубтитры: отсутствуют
Женщину, являющуюся прообразом главной героини, посадили в тюрьму в 2007 г.
Сериал снят по одноименному роману Артуро Перес-Реверте.
Ремейк одноименного сериала 2011 года.
Общее
Уникальный идентификатор : 205924648599546736828091164786545640989 (0x9AEBA50B39940AD48D40BA039B83C61D)
Полное имя : J:\Королева юга\Queen of the South.S01.WEB-DLRip.LostFilm.[pirat.ca]\Queen.of.the.South.S01E01.WEB-DLRip.H264.P.LostFilm.mkv
Формат : Matroska
Версия формата : Version 4 / Version 2
Размер файла : 892 Мбайт
Продолжительность : 45 м.
Общий поток : 2748 Кбит/сек
Дата кодирования : UTC 2016-07-10 18:10:06
Программа кодирования : mkvmerge v9.1.0 ('Little Earthquakes') 32bit
Библиотека кодирования : libebml v1.3.3 + libmatroska v1.4.4
Видео
Идентификатор : 1
Формат : AVC
Формат/Информация : Advanced Video Codec
Профиль формата : [email protected]
Параметр CABAC формата : Нет
Параметр ReFrames формата : 2 кадра
Идентификатор кодека : V_MPEG4/ISO/AVC
Продолжительность : 45 м.
Битрейт : 2000 Кбит/сек
Ширина : 1024 пикселя
Высота : 576 пикселей
Соотношение сторон : 16:9
Режим частоты кадров : Постоянный
Частота кадров : 23,976 (24000/1001) кадра/сек
Цветовое пространство : YUV
Субдискретизация насыщенности : 4:2:0
Битовая глубина : 8 бит
Тип развёртки : Прогрессивная
Бит/(Пиксели*Кадры) : 0.141
Размер потока : 642 Мбайт (72%)
Библиотека кодирования : x264 core 148 r2579 73ae2d1
Настройки программы : cabac=0 / ref=2 / deblock=1:0:0 / analyse=0x1:0x111 / me=umh / subme=7 / psy=1 / psy_rd=1.00:0.00 / mixed_ref=1 / me_range=16 / chroma_me=1 / trellis=2 / 8x8dct=0 / cqm=0 / deadzone=21,11 / fast_pskip=1 / chroma_qp_offset=-2 / threads=12 / lookahead_threads=2 / sliced_threads=0 / nr=0 / decimate=1 / interlaced=0 / bluray_compat=0 / constrained_intra=0 / bframes=0 / weightp=0 / keyint=250 / keyint_min=23 / scenecut=40 / intra_refresh=0 / rc_lookahead=40 / rc=abr / mbtree=1 / bitrate=2000 / ratetol=1.0 / qcomp=0.60 / qpmin=0 / qpmax=69 / qpstep=4 / ip_ratio=1.40 / aq=1:1.00
Язык : English
Default : Да
Forced : Нет
Аудио #1
Идентификатор : 2
Формат : AC-3
Формат/Информация : Audio Coding 3
Расширение режима : CM (complete main)
Параметр Endianness формата : Big
Идентификатор кодека : A_AC3
Продолжительность : 45 м.
Вид битрейта : Постоянный
Битрейт : 384 Кбит/сек
Каналы : 2 канала
Расположение каналов : Front: L R
Частота : 48,0 КГц
Частота кадров : 31,250 кадров/сек (1536 spf)
Метод сжатия : С потерями
Задержка видео : 20 мс.
Размер потока : 125 Мбайт (14%)
Заголовок : LostFilm
Язык : Russian
Default : Да
Forced : Да
Аудио #2
Идентификатор : 3
Формат : AC-3
Формат/Информация : Audio Coding 3
Расширение режима : CM (complete main)
Параметр Endianness формата : Big
Идентификатор кодека : A_AC3
Продолжительность : 45 м.
Вид битрейта : Постоянный
Битрейт : 384 Кбит/сек
Каналы : 6 каналов
Расположение каналов : Front: L C R, Side: L R, LFE
Частота : 48,0 КГц
Частота кадров : 31,250 кадров/сек (1536 spf)
Метод сжатия : С потерями
Размер потока : 125 Мбайт (14%)
Язык : English
Default : Нет
Forced : Нет
Download / Скачать

Хотите скачать бесплатно? Зарегистрируйтесь на сайте (ссылка на регистрацию). Pirat.ca - самый быстрый торрент трекер в рунете!

Как скачивать  ·   Что такое торрент  ·   Рейтинг и ограничения

Показать сообщения:    
Ответить на тему

Текущее время: Сегодня 06:19

Часовой пояс: GMT + 4



Вы не можете начинать темы
Вы не можете отвечать на сообщения
Вы не можете редактировать свои сообщения
Вы не можете удалять свои сообщения
Вы не можете голосовать в опросах
Вы не можете прикреплять файлы к сообщениям
Вы не можете скачивать файлы

▼ Вниз