ML
     
  Уважаемый Гость!
Вы можете поддержать проект и зарегистрироваться у наших партнеров - онлайн-стратегия MyLands. При регистрации в игре Вы получите код, который сможете активировать после регистрации на pirat.ca и получить 1000 дублонов.

Ваш код:
fe4e93b754a7c2b306fcfc8bc32532ea1cf59d3b
 
     

Кровь ворона / Crow's Blood / Сезон: 1 / Серии: 6 из 6 (Ясуси Акимото / Yasushi Akimoto) [2016 г., ужасы, фантастика, мистика, детектив, WEB-DLRip] DVO (DeadSno & den904)

Ответить на тему
 
Автор
Сообщение

Пост 21-Сен-2016 07:24

[Q] 

somik

Легенда

-Кровь ворона / Crow's Blood-- Производство: Япония
Жанр: ужасы, фантастика, мистика, детектив
Год выпуска: 2016 г.
Продолжительность: 00:36:00
Мировая премьера: 23 июля 2016
Перевод: Любительский (двухголосый, закадровый) [DeadSno & den904]
Режиссер: Ясуси Акимото / Yasushi Akimoto-В ролях: Ватанабэ Маю, Мияваки Сакура, Бэссё Тэцуя и др.-Описание: История начинается после перевода таинственной студентки в среднюю школу для девочек. После ее перевода в школе начали происходить странные события, что перевернуло вверх ногами жизнь других студентов.-
Качество видео: WEB-DLRip
Контейнер: AVI
Видео кодек: XviD
Аудио кодек: AC3
Видео: 720x400 (1.80:1), 29.970 fps, XviD build 67 ~1592 kbps avg, 0.18 bit/pixel
Аудио: 44.1 kHz, AC3 Dolby Digital, 2/0 (L,R) ch, ~192 kbps
Cубтитры: отсутствуют
Общее
Полное имя : J:\Кровь ворона\Кровь ворона.2016.WEB-DLRip.[pirat.ca]\Кровь ворона 1серия [Студия Колобок]_xvid.avi
Формат : AVI
Формат/Информация : Audio Video Interleave
Размер файла : 508 Мбайт
Продолжительность : 39 м.
Общий поток : 1796 Кбит/сек
Название фильма : Кровь ворона 1серия [Студия Колобок]_xvid
Программа кодирования : Lavf56.36.100
Видео
Идентификатор : 0
Формат : xvid
Идентификатор кодека : xvid
Продолжительность : 39 м.
Битрейт : 1593 Кбит/сек
Ширина : 720 пикселей
Высота : 400 пикселей
Соотношение сторон : 16:9
Частота кадров : 29,970 кадров/сек
Тип развёртки : Прогрессивная
Бит/(Пиксели*Кадры) : 0.185
Размер потока : 450 Мбайт (89%)
Аудио
Идентификатор : 1
Формат : AC-3
Формат/Информация : Audio Coding 3
Расширение режима : CM (complete main)
Параметр Endianness формата : Big
Идентификатор кодека : 2000
Продолжительность : 39 м.
Вид битрейта : Постоянный
Битрейт : 192 Кбит/сек
Каналы : 2 канала
Расположение каналов : Front: L R
Частота : 44,1 КГц
Частота кадров : 28,711 кадров/сек (1536 spf)
Битовая глубина : 16 бит
Метод сжатия : С потерями
Размер потока : 54,3 Мбайт (11%)
Выравнивание : Соединение по промежуткам
Продолжительность промежутка : 35 мс. (1,04 видеокадр)
Время предзагрузки промежутка : 34 мс.
Download / Скачать

Хотите скачать бесплатно? Зарегистрируйтесь на сайте (ссылка на регистрацию). Pirat.ca - самый быстрый торрент трекер в рунете!

Как скачивать  ·   Что такое торрент  ·   Рейтинг и ограничения

Показать сообщения:    
Ответить на тему

Текущее время: Сегодня 14:30

Часовой пояс: GMT + 4



Вы не можете начинать темы
Вы не можете отвечать на сообщения
Вы не можете редактировать свои сообщения
Вы не можете удалять свои сообщения
Вы не можете голосовать в опросах
Вы не можете прикреплять файлы к сообщениям
Вы не можете скачивать файлы

▼ Вниз