Уважаемый Гость!
Вы можете поддержать проект и зарегистрироваться у наших партнеров - онлайн-стратегия MyLands. При регистрации в игре Вы получите код, который сможете активировать после регистрации на pirat.ca и получить 1000 дублонов.

Ваш код:
b836166f69a364586dbb03978c43ffbb9eaad8cd
 
     

Тёмная материя / Тёмные дела / Dark Matter / Сезон: 2 / Серии: 13 из 13 (Рон Мерфи / Ron Murphy, ...) [2016 г., фантастика, триллер, WEB-DL, 1080p] MVO (LostFilm)

Ответить на тему
 
Автор
Сообщение

Пост 21-Сен-2016 13:37

[Q] 

somik

-Тёмная материя / Тёмные дела / Dark Matter-- Производство: Канада, Prodigy Pictures
Жанр: фантастика, триллер
Год выпуска: 2016 г.
Продолжительность: 00:43:00
Мировая премьера: 1 июля 2016
Перевод: Профессиональный (многоголосый, закадровый) [LostFilm]
Режиссер: Рон Мерфи / Ron Murphy, ...-В ролях: Энтони Лемке, Джоделль Ферланд, Марк Бендавид, Мелисса О’Нил, Алекс Маллари мл., Роджер Р. Кросс, Зои Палмер, Пэй Чен, Инга Кадранел, Дэвид Хьюлетт и др.-Описание: Экипаж заброшенного космического корабля пробуждается от анабиоза, без воспоминаний о том, кто они и как они поднялись на борт. Сталкиваясь с угрозами на каждом шагу, они должны работать вместе, чтобы выжить. Их путешествие наполнено местью, предательством и скрытыми тайнами.-
Качество видео: WEB-DL
Контейнер: MKV
Стандарт разрешения: 1080p
Видео кодек: MPEG4 AVC
Аудио кодек: AC3
Видео: 1920x1080 (16:9), ~4883 kbps, 23,976 fps
Аудио: AC-3, 48,0 kHz, 2 ch, 384 kbps
Cубтитры: отсутствуют
Смена личности
Посмотрела сезон сериала, хочу поделится впечатлениями. Сразу скажу, я не фанатка космической фантастики, но! С первой серии затянуло. Сериал можно ругать за не очень дорогие декорации, слабые спецэфекты, кому-то даже не понравится игра актеров. Хотя беря в расчет, прямо скажем, маленький бюджет все очень и очень на уровне.
Да, стандартный набор характеров и навыков для команды, но опять же грамотно проработаны на мой взгляд в этом сериале. Что в принципе для меня не мало важно. Я смотрю и верю в то что вижу. Интересный сюжет, с постепенно развивающимися событиями и раскрытием героев.
Короче, прямо и просто говоря мне очень понравилось и я жду продолжения, которое, надеюсь, будут снимать. Не хочу рассказывать сюжет, и происходящие события. Просто рекомендую посмотреть. Здесь нет супер и сверх существ. Здесь играют люди, ну не считая конечно андройда, хотя и она имеет форму человека. Отсутствуют иные расы. Хотя если увеличат бюджет и найдут спонсоров и они появятся. Смотрибельно и интересно. Советую посмотреть.
10 из 10.
Общее
Уникальный идентификатор : 191707075326421161892976749234403565172 (0x9039708FAB1A797EA2A71D3527525E74)
Полное имя : J:\Тёмная материя 2\Dark Matter.S02.2016.WEB-DL.1080p.LostFilm.[pirat.ca]\Dark Matter.S02E01.WEB-DL.1080p.LostFilm.[pirat.ca].mkv
Формат : Matroska
Версия формата : Version 2
Размер файла : 1,58 Гбайт
Продолжительность : 43 м.
Общий поток : 5268 Кбит/сек
Дата кодирования : UTC 2016-09-21 08:45:19
Программа кодирования : mkvmerge v5.3.0 ('I could have danced') built on Feb 9 2012 10:38:07
Библиотека кодирования : libebml v1.2.3 + libmatroska v1.3.0
Видео
Идентификатор : 1
Формат : AVC
Формат/Информация : Advanced Video Codec
Профиль формата : [email protected]
Параметр CABAC формата : Да
Параметр ReFrames формата : 4 кадра
Идентификатор кодека : V_MPEG4/ISO/AVC
Продолжительность : 43 м.
Битрейт : 4780 Кбит/сек
Ширина : 1920 пикселей
Высота : 1080 пикселей
Соотношение сторон : 16:9
Режим частоты кадров : Постоянный
Частота кадров : 23,976 кадра/сек
Цветовое пространство : YUV
Субдискретизация насыщенности : 4:2:0
Битовая глубина : 8 бит
Тип развёртки : Прогрессивная
Бит/(Пиксели*Кадры) : 0.096
Размер потока : 1,44 Гбайт (91%)
Язык : English
Default : Да
Forced : Нет
Цветовой диапазон : Limited
Основные цвета : BT.709
Характеристики трансфера : BT.709
Коэффициенты матрицы : BT.709
Statistics Tags Issue : mkvmerge v8.2.0 ('World of Adventure') 64bit 2016-07-04 19:26:37 / mkvmerge v5.3.0 ('I could have danced') built on Feb 9 2012 10:38:07 2016-09-21 08:45:19
FromStats_BitRate : 4882615
FromStats_Duration : 00:43:02.750000000
FromStats_FrameCount : 61924
FromStats_StreamSize : 1576321940
Аудио
Идентификатор : 2
Формат : AC-3
Формат/Информация : Audio Coding 3
Расширение режима : CM (complete main)
Параметр Endianness формата : Big
Идентификатор кодека : A_AC3
Продолжительность : 43 м.
Вид битрейта : Постоянный
Битрейт : 384 Кбит/сек
Каналы : 2 канала
Расположение каналов : Front: L R
Частота : 48,0 КГц
Частота кадров : 31,250 кадров/сек (1536 spf)
Метод сжатия : С потерями
Размер потока : 118 Мбайт (7%)
Заголовок : LostFilm
Язык : Russian
Default : Да
Forced : Нет
Statistics Tags Issue : mkvmerge v8.2.0 ('World of Adventure') 64bit 2016-07-04 19:26:37 / mkvmerge v5.3.0 ('I could have danced') built on Feb 9 2012 10:38:07 2016-09-21 08:45:19
FromStats_BitRate : 384000
FromStats_Duration : 00:43:02.720000000
FromStats_FrameCount : 80710
FromStats_StreamSize : 123970560
Download / Скачать

Хотите скачать бесплатно? Зарегистрируйтесь на сайте (ссылка на регистрацию). Pirat.ca - самый быстрый торрент трекер в рунете!

Как скачивать  ·   Что такое торрент  ·   Рейтинг и ограничения

Показать сообщения:    
Ответить на тему

Текущее время: Сегодня 16:28

Часовой пояс: GMT + 4



Вы не можете начинать темы
Вы не можете отвечать на сообщения
Вы не можете редактировать свои сообщения
Вы не можете удалять свои сообщения
Вы не можете голосовать в опросах
Вы не можете прикреплять файлы к сообщениям
Вы не можете скачивать файлы

▼ Вниз