ML
     
  Уважаемый Гость!
Вы можете поддержать проект и зарегистрироваться у наших партнеров - онлайн-стратегия MyLands. При регистрации в игре Вы получите код, который сможете активировать после регистрации на pirat.ca и получить 1000 дублонов.

Ваш код:
59354507ba913a0948d1a8f2e30f2e04c4cd7b9b
 
     

Американская история ужасов / American Horror Story / Сезон 6 / Серии: 10 из 10 (Брэдли Букер / Bradley Buecker ...) [2016г., ужасы, фэнтези, триллер, драма, ..., WEB-DLRip] MVO (LostFilm) + Original (Eng) [Финал]

Ответить на тему
 
Автор
Сообщение

Пост 21-Сен-2016 19:21

[Q] 

kugesan

Американская история ужасов / American Horror Story
«Get committed»
- Производство: США
Год выпуска: 2016
Жанр: ужасы, фантастика, триллер, драма, детектив, ...-Премьера (мир): 5 октября 2011, ...
Премьера (РФ): 6 июня 2013-Озвучка: Студия
Перевод: Многоголосый закадровый, профессиональный
Оригинальный аудиопоток: английский-Режиссер: Брэдли Букер / Bradley Buecker, Альфонсо Гомез-Рейон / Alfonso Gomez-Rejon, Майкл Аппендаль / Michael Uppendahl ...
В главных ролях: Эван Питерс, Джессика Лэнг, Лили Рэйб, Фрэнсис Конрой, Сара Полсон, Таисса Фармига, Дэнис О`Харе, Закари Куинто, Дилан МакДермотт, Джэми Брюэр, Кэти Бэйтс, Джозеф Файнс, Лиззи Брошере, Эмма Робертс, Джеймс Кромуэлл, Конни Бриттон, Анджела Бассетт, Габури Сидибе, Кейт Мара ...-Описание фильма:
Действие разворачивается в 2016 году в Северной Каролине. Шелби Миллер, ее муж Мэтт и его сестра Ли участвуют в съемках документального фильма под названием «Мой кошмар в Роаноке», в основу сюжета которого была положена чудовищная история, произошедшая с ними в одном старом доме. Когда-то Мэтт и Шелби жили в Лос-Анджелесе, но после серии трагических событий решили уехать в глушь, где тихо и спокойно. Паре приглянулся старый полуразрушенный дом в лесах Северной Каролины и, купив его за бесценок, они начали обустраиваться. Однако немногочисленные соседи, недовольные своей жизнью глуповатые деревенщины, встретили новых жителей не очень гостеприимно — то дохлое животное подбросят на порог, то каким-то невероятным образом устроят дождь из человеческих зубов. По долгу службы Мэтту приходится отлучаться и оставлять свою возлюбленную одну. Чтобы она не боялась, он оборудовал жилище камерами и позвал погостить сестру — бывшего копа. Все эти меры предосторожности наверняка сработали бы, если бы странные явления в особняке и на его территории на самом деле были делом рук завистливых соседей. Но что если местные трактористы и свинопасы тут ни при чем? Что если главные герои столкнулись со сверхъестественными силами, корни которых уходят глубоко в прошлое зловещего Роанока?..-Сезон: 6
Серии: 10 из 10 серий
Продолжительность: ~ 00:44:00 мин серия-Качество видео: WEB-DLRip
Формат: AVI
Видеокодек: XviD
Аудиокодек: Mp3
Видео: MPEG-4 Visual at 1365 Кбит/сек: 720 x 400 (1.800) at 23.976 fps, 0.20 Бит/Пиксели
Аудио Rus: MPEG Audio at 128 Кбит/сек: 2 канала, 48,0 КГц |LostFilm|
Аудио Eng: MPEG Audio at 128 Кбит/сек: 2 канала, 48,0 КГц |Original|
- -Сериал "Американская история ужасов / American Horror Story" на треке Pirat.ca-
Общее
Полное имя : E:\_Сериалы\_Сериалы\Американская история ужасов\American.Horror.Story (S06)\American.Horror.Story.s06e01.WEBDLRip.LostFilm.avi
Формат : AVI
Формат/Информация : Audio Video Interleave
Размер файла : 517 Мбайт
Продолжительность : 44 м. 20 с.
Общий поток : 1631 Кбит/сек
Программа кодирования : VirtualDubMod 1.5.10.3 | www.virtualdub-fr.org || (build 2550/release)
Библиотека кодирования : VirtualDubMod build 2550/release
Видео
Идентификатор : 0
Формат : MPEG-4 Visual
Профиль формата : Advanced [email protected]
Параметр BVOP формата : 2
Параметр QPel формата : Да
Параметр GMC формата : Без точки перехода
Параметр матрицы формата : Default (MPEG)
Режим смешивания : Сжатый битовый поток
Идентификатор кодека : XVID
Идентификатор кодека/Подсказка : XviD
Продолжительность : 44 м. 20 с.
Битрейт : 1365 Кбит/сек
Ширина : 720 пикселей
Высота : 400 пикселей
Соотношение сторон : 16:9
Частота кадров : 23,976 (23976/1000) кадра/сек
Цветовое пространство : YUV
Субдискретизация насыщенности : 4:2:0
Битовая глубина : 8 бит
Тип развёртки : Прогрессивная
Метод сжатия : С потерями
Бит/(Пиксели*Кадры) : 0.198
Размер потока : 433 Мбайт (84%)
Библиотека кодирования : XviD 73
Аудио #1
Идентификатор : 1
Формат : MPEG Audio
Версия формата : Version 1
Профиль формата : Layer 3
Режим : Joint stereo
Расширение режима : MS Stereo
Идентификатор кодека : 55
Идентификатор кодека/Подсказка : MP3
Продолжительность : 42 м. 46 с.
Вид битрейта : Постоянный
Битрейт : 128 Кбит/сек
Каналы : 2 канала
Частота : 48,0 КГц
Метод сжатия : С потерями
Размер потока : 39,2 Мбайт (8%)
Выравнивание : Соединение по промежуткам
Продолжительность промежутка : 43 мс. (1,04 видеокадр)
Время предзагрузки промежутка : 504 мс.
Аудио #2
Идентификатор : 2
Формат : MPEG Audio
Версия формата : Version 1
Профиль формата : Layer 3
Режим : Joint stereo
Расширение режима : MS Stereo
Идентификатор кодека : 55
Идентификатор кодека/Подсказка : MP3
Продолжительность : 44 м. 20 с.
Вид битрейта : Постоянный
Битрейт : 128 Кбит/сек
Каналы : 2 канала
Частота : 48,0 КГц
Метод сжатия : С потерями
Размер потока : 40,6 Мбайт (8%)
Выравнивание : Соединение по промежуткам
Продолжительность промежутка : 42 мс. (1,00 видеокадр)
Время предзагрузки промежутка : 504 мс.
Библиотека кодирования : LAME3.99.5
-
-Скриншоты:
-
-
Раздача ведётся путём добавления новых серий; при каждом добавлении создаётся новый торрент.
Чтобы начать докачку новой серии, пользователям необходимо сделать следующее:
1. остановить скачивание,
2. удалить старый торрент у себя из клиента (старые серии удалять не надо),
3. скачать новый торрент и запустить его у себя в клиенте вместо старого, при этом указать клиенту путь в старую папку, куда и должно происходить скачивание новых серий.
Ваш клиент при этом должен произвести хеширование (проверку) старой папки (если не производит сам - помогите ему сделать это), и будет докачивать только те серии которых у вас ещё нет. Старые серии при этом не удаляются, а продолжают раздаваться!
Eсли вы уже удалили старые серии, то предотвратить повторную закачку старых серий можно, отжав галочку в соответствующих местах при запуске нового торрента. По возможности, желательно не удалять старые серии как можно дольше, чтобы релизёр не столько продолжал раздавать старые серии, а смог сконцентрироваться на новых.
Совет для тех, кто не хочет ждать перехеширования:
Создайте ещё одну папку рядом с папкой сериала (рядом, а не в ней!!!). Каждую новую серию после удачной загрузки копируйте в новую папку так чтобы ваша основная папка всегда была пуста. Когда ваш новый торрент предложит вам закачать все файлы, выберете только последнюю. Для сидирования же укажите адрес новой папки.
Как закачать отдельный файл из торрента или докачать ранее пропущенные файлы торрента!
-
1. Открыть торрент
2. Снять галки с тех файлов торрента, которые мы не хотим закачивать. Оставляем только на нужных нам файлах (файле).
3. Нажать О.К.
В клиенте utorrent
Инструкция
1) Открыть торрент

2) Снять галки с тех файлов торрента, которые мы не хотим закачивать:
* либо вручную, снимая с каждого файла галку( скрин №1)
* либо, нажав кнопку "Снять метки (Select None)", сняв сразу со всех файлов(скрин №2)
№1

№2

Оставляем только на нужных нам файлах (файле).

3)Нажать О.К
-Приятного просмотра!!!-
Download / Скачать

Хотите скачать бесплатно? Зарегистрируйтесь на сайте (ссылка на регистрацию). Pirat.ca - самый быстрый торрент трекер в рунете!

Как скачивать  ·   Что такое торрент  ·   Рейтинг и ограничения



Последний раз редактировалось: kugesan (2016-11-20 22:04), всего редактировалось 1 раз

nitro1985

Корсар

Пост 17-Ноя-2016 16:09 (спустя 1 месяц 25 дней)

[Q] 

посмотримс
Спасибо!!!
[Профиль]  [ЛС] 

kugesan ®

56652

Пост 17-Ноя-2016 23:38 (спустя 7 часов)

[Q] 

Приятного просмотра!!!

_________________

В мире две бесконечности: вселенная и человеческая глупость - Альберт Эйнштен
«Можно вытащить человека из грязи, но нельзя вытащить грязь из человека»!
[Профиль]  [ЛС] 
Показать сообщения:    
Ответить на тему

Текущее время: Сегодня 16:10

Часовой пояс: GMT + 4



Вы не можете начинать темы
Вы не можете отвечать на сообщения
Вы не можете редактировать свои сообщения
Вы не можете удалять свои сообщения
Вы не можете голосовать в опросах
Вы не можете прикреплять файлы к сообщениям
Вы не можете скачивать файлы

▼ Вниз