ML
     
  Уважаемый Гость!
Вы можете поддержать проект и зарегистрироваться у наших партнеров - онлайн-стратегия MyLands. При регистрации в игре Вы получите код, который сможете активировать после регистрации на pirat.ca и получить 1000 дублонов.

Ваш код:
c89b4b6523eaac3173e9a9c062ac1a19db575961
 
     

Тайный город / Город тайн / Secret City / Сезон: 1 / Серии: 6 из 6 (Эмма Фриман / Emma Freeman, ...) [2016 г., триллер, HDTVRip, 720p] MVO (NewStudio) + Original (Eng)

Ответить на тему
 
Автор
Сообщение

Пост 26-Сен-2016 14:24

[Q] 

somik

Легенда

-Тайный город / Город тайн / Secret City-- Производство: Австралия
Жанр: триллер
Год выпуска: 2016 г.
Продолжительность: 00:50:00
Мировая премьера: 5 июня 2016
Перевод: Профессиональный (многоголосый, закадровый) [NewStudio]
Оригинальный аудиопоток: английский
Режиссер: Эмма Фриман / Emma Freeman, ...-В ролях: Анна Торв, Дэниэл Уилли, Джеки Уивер, Дэймон Херриман, Алан Дэйл, Алекс Димитриадес, Евгения Йуан, Мэтт Зеремс, Хув Хиггинсон, Маркус Грэхэм-Описание: Главная героиня сериала «Город Тайн» — корреспондент Гарриет Данкли, затянутая в общественно-политическое столкновение Китая и Соединенных Штатов Америки, проводит расследование таинственного старого дела, вследствие которого были осуществлены пробы заказных смертей. Данкли выясняет, что в Канберре, австралийской столице, в действительности имеется определённый тайный город, в котором влиятельные коррупционеры-госслужащие состязаются друг с дружкой в правлении.-
Качество видео: HDTVRip
Контейнер: MKV
Стандарт разрешения: 720p
Видео кодек: MPEG4 AVC
Аудио кодек: AC3
Видео: ~ 2177 Кбит/с, 1280x640, 25,000 кадров/сек
Аудио: AC3, 2 ch, 192 Кбит/с, 48,0 КГц
Аудио #2: AC3, 2 ch, 192 Кбит/с, 48,0 КГц
Cубтитры: отсутствуют
Общее
Уникальный идентификатор : 205904330613632531866752634577388303612 (0x9AE7BB4A3051AFBBB3CEE9E59D0FF4FC)
Полное имя : F:\Тайный город\Tajnyj Gorod.S01.HDTV.720p.NewStudio.[pirat.ca]\Secret.City.s01e01.HDTV.720p.NewStudio.TV.mkv
Формат : Matroska
Версия формата : Version 4 / Version 2
Размер файла : 710 Мбайт
Продолжительность : 45 м.
Общий поток : 2177 Кбит/сек
Дата кодирования : UTC 2016-08-01 23:17:09
Программа кодирования : mkvmerge v8.2.0 ('World of Adventure') 32bit
Библиотека кодирования : libebml v1.3.1 + libmatroska v1.4.2
Видео
Идентификатор : 1
Формат : AVC
Формат/Информация : Advanced Video Codec
Профиль формата : [email protected]
Параметр CABAC формата : Да
Параметр ReFrames формата : 5 кадров
Идентификатор кодека : V_MPEG4/ISO/AVC
Продолжительность : 45 м.
Битрейт : 1863 Кбит/сек
Ширина : 1276 пикселей
Высота : 642 пикселя
Соотношение сторон : 1,988
Режим частоты кадров : Постоянный
Частота кадров : 25,000 кадров/сек
Цветовое пространство : YUV
Субдискретизация насыщенности : 4:2:0
Битовая глубина : 8 бит
Тип развёртки : Прогрессивная
Бит/(Пиксели*Кадры) : 0.091
Размер потока : 608 Мбайт (86%)
Библиотека кодирования : x264 core 148 r2692 64f4e24
Настройки программы : cabac=1 / ref=5 / deblock=1:0:0 / analyse=0x3:0x113 / me=umh / subme=8 / psy=1 / psy_rd=1.00:0.00 / mixed_ref=1 / me_range=16 / chroma_me=1 / trellis=2 / 8x8dct=1 / cqm=0 / deadzone=21,11 / fast_pskip=1 / chroma_qp_offset=-2 / threads=12 / lookahead_threads=2 / sliced_threads=0 / nr=0 / decimate=1 / interlaced=0 / bluray_compat=0 / constrained_intra=0 / bframes=3 / b_pyramid=2 / b_adapt=2 / b_bias=0 / direct=3 / weightb=1 / open_gop=0 / weightp=2 / keyint=250 / keyint_min=25 / scenecut=40 / intra_refresh=0 / rc_lookahead=50 / rc=crf / mbtree=1 / crf=19.0 / qcomp=0.60 / qpmin=0 / qpmax=69 / qpstep=4 / ip_ratio=1.40 / aq=1:1.00
Default : Да
Forced : Нет
Цветовой диапазон : Limited
Коэффициенты матрицы : BT.709
Аудио #1
Идентификатор : 2
Формат : AC-3
Формат/Информация : Audio Coding 3
Расширение режима : CM (complete main)
Параметр Endianness формата : Big
Идентификатор кодека : A_AC3
Продолжительность : 45 м.
Вид битрейта : Постоянный
Битрейт : 192 Кбит/сек
Каналы : 2 канала
Расположение каналов : Front: L R
Частота : 48,0 КГц
Частота кадров : 31,250 кадров/сек (1536 spf)
Метод сжатия : С потерями
Размер потока : 62,6 Мбайт (9%)
Заголовок : NewStudio.TV
Язык : Russian
Default : Да
Forced : Нет
Аудио #2
Идентификатор : 3
Формат : AAC
Формат/Информация : Advanced Audio Codec
Профиль формата : LC
Идентификатор кодека : A_AAC
Продолжительность : 45 м.
Битрейт : 120 Кбит/сек
Каналы : 2 канала
Расположение каналов : Front: L R
Частота : 48,0 КГц
Частота кадров : 46,875 кадров/сек (1024 spf)
Метод сжатия : С потерями
Задержка видео : 9 мс.
Размер потока : 39,1 Мбайт (6%)
Язык : English
Default : Нет
Forced : Нет
Download / Скачать

Хотите скачать бесплатно? Зарегистрируйтесь на сайте (ссылка на регистрацию). Pirat.ca - самый быстрый торрент трекер в рунете!

Как скачивать  ·   Что такое торрент  ·   Рейтинг и ограничения

Показать сообщения:    
Ответить на тему

Текущее время: Сегодня 22:29

Часовой пояс: GMT + 4



Вы не можете начинать темы
Вы не можете отвечать на сообщения
Вы не можете редактировать свои сообщения
Вы не можете удалять свои сообщения
Вы не можете голосовать в опросах
Вы не можете прикреплять файлы к сообщениям
Вы не можете скачивать файлы

▼ Вниз