ML
     
  Уважаемый Гость!
Вы можете поддержать проект и зарегистрироваться у наших партнеров - онлайн-стратегия MyLands. При регистрации в игре Вы получите код, который сможете активировать после регистрации на pirat.ca и получить 1000 дублонов.

Ваш код:
db0e0ad91548759ffeb9bb88bed405e1a4b3c165
 
     

Тайны и ложь / Secrets and Lies / Сезон: 1 / Серии: 10 из 10 (Адам Аркин / Adam Arkin, ...) [2015 г., драма, детектив, триллер, криминал, WEB-DLRip] Dub (Кириллица) + Original (Eng)

Ответить на тему
 
Автор
Сообщение

Пост 30-Сен-2016 00:34

[Q] 

somik

Легенда

-Тайны и ложь / Secrets and Lies-- Производство: США, ABC Studios
Жанр: драма, детектив, триллер, криминал
Год выпуска: 2015 г.
Продолжительность: 00:41:00
Мировая премьера: 1 марта 2015
Российская премьера: 11 сентября 2015
Перевод: Профессиональный (полное дублирование) [Кириллица]
Оригинальный аудиопоток: английский
Режиссер: Адам Аркин / Adam Arkin, ...-В ролях: Райан Филипп, Джульетт Льюис, КаДи Стрикленд, Дэн Фоглер, Натали Мартинез, Индиана Эванс, Белль Шусе, Роберт Фортунато-Описание: После того, как Бен Кроуфорд нашел тело соседского мальчика в лесу, его начинают подозревать в убийстве. Детектив Андреа Корнелл пытается докопаться до истины. Все тайны и ложь городка, где произошел инцидент, всплывут на поверхность, а жизнь семьи Бена будет перевернута вверх дном…-
Качество видео: WEB-DLRip
Контейнер: AVI
Видео кодек: XviD
Аудио кодек: AC3
Видео: 720x400 (1.80:1), 25 fps, XviD build 65 ~2006 kbps avg, 0.28 bit/pixel
Аудио: 48 kHz, AC3 Dolby Digital, 2/0 (L,R) ch, ~256 kbps
Аудио #2: 48 kHz, AC3 Dolby Digital, 2/0 (L,R) ch, ~256 kbps
Cубтитры: отсутствуют
Многое нужно, чтобы узнать мужчину.(название песни Дэмиена Раиса из финала сериала)
Отличный сериал, на самом деле. Неровный, что для него только на пользу. И главное, даже не интрига, кто убил несчастного ребенка, а сердце отца семейства, которое разрывается между любви к дочерям, жене, маниакальной любовнице и всеми теми знаниям, которые обрушились на него. Если только об этом задуматься, то концовка весьма логична. Этот человек не мог поступить иначе.
Кстати, тем кому концовка кажется открытой — существует 11ый пятиминутный вебизод «14 месяцев спустя». Где история окончательно заканчивается и показывается. И от этого ещё грустнее.
Многие ругают игру Джульет Льюис, а по моему она прекрасно сыграла детектива Корнелл. Никакая она не злобная. Просто наученная горьким опытом. Ни на шаг не отступая от закона, пытается искренне дойти до сути. Очень люблю эту актрису!
Райан Филиппе — как говорится, тот момент, когда понимаешь, что ресницы у мужчины длиннее чем у тебя. Ну, этот так, стариковское отступление. Сыграл Бена очень убедительно. Затравленый соседями, надломленный человек. Не дай Ктулху таких соседей мне! Вполне справился с ролью.
Не блокбастер. Но если хотите крепкой детективной драмы (с нажимом на второе слово), то вот, очень удачно вы, забрели на страницу сериала.
10 из 10
Общее
Полное имя : E:\Тайны и ложь\Secrets and Lies.S01.WEB-DLRip.[Кириллица].[pirat.ca]\Secrets.and.Lies.s01e01.WEB-DLRip.[pirat.ca].avi
Формат : AVI
Формат/Информация : Audio Video Interleave
Размер файла : 745 Мбайт
Продолжительность : 41 м.
Общий поток : 2534 Кбит/сек
Программа кодирования : VirtualDubMod 1.5.10.3 (build 2550/release)
Библиотека кодирования : VirtualDubMod build 2550/release
Видео
Идентификатор : 0
Формат : MPEG-4 Visual
Профиль формата : Advanced [email protected]
Параметр BVOP формата : 1
Параметр QPel формата : Нет
Параметр GMC формата : Без точки перехода
Параметр матрицы формата : Default (MPEG)
Идентификатор кодека : XVID
Идентификатор кодека/Подсказка : XviD
Продолжительность : 41 м.
Битрейт : 2008 Кбит/сек
Ширина : 720 пикселей
Высота : 400 пикселей
Соотношение сторон : 16:9
Частота кадров : 25,000 кадров/сек
Цветовое пространство : YUV
Субдискретизация насыщенности : 4:2:0
Битовая глубина : 8 бит
Тип развёртки : Прогрессивная
Метод сжатия : С потерями
Бит/(Пиксели*Кадры) : 0.279
Размер потока : 590 Мбайт (79%)
Библиотека кодирования : XviD 65
Аудио #1
Идентификатор : 1
Формат : AC-3
Формат/Информация : Audio Coding 3
Расширение режима : CM (complete main)
Параметр Endianness формата : Big
Идентификатор кодека : 2000
Продолжительность : 41 м.
Вид битрейта : Постоянный
Битрейт : 256 Кбит/сек
Каналы : 2 канала
Расположение каналов : Front: L R
Частота : 48,0 КГц
Частота кадров : 31,250 кадров/сек (1536 spf)
Метод сжатия : С потерями
Размер потока : 75,3 Мбайт (10%)
Выравнивание : Разделение по промежуткам
Продолжительность промежутка : 40 мс. (1,00 видеокадр)
Время предзагрузки промежутка : 500 мс.
Аудио #2
Идентификатор : 2
Формат : AC-3
Формат/Информация : Audio Coding 3
Расширение режима : CM (complete main)
Параметр Endianness формата : Big
Идентификатор кодека : 2000
Продолжительность : 41 м.
Вид битрейта : Постоянный
Битрейт : 256 Кбит/сек
Каналы : 2 канала
Расположение каналов : Front: L R
Частота : 48,0 КГц
Частота кадров : 31,250 кадров/сек (1536 spf)
Метод сжатия : С потерями
Размер потока : 75,3 Мбайт (10%)
Выравнивание : Разделение по промежуткам
Продолжительность промежутка : 40 мс. (1,00 видеокадр)
Время предзагрузки промежутка : 500 мс.
Download / Скачать

Хотите скачать бесплатно? Зарегистрируйтесь на сайте (ссылка на регистрацию). Pirat.ca - самый быстрый торрент трекер в рунете!

Как скачивать  ·   Что такое торрент  ·   Рейтинг и ограничения

Пост 02-Окт-2016 10:56 (спустя 2 дня 10 часов)

Топик был перенесен из форума Зарубежные сериалы (Трюм) в форум Зарубежные сериалы
erchine
 
Показать сообщения:    
Ответить на тему

Текущее время: Сегодня 08:09

Часовой пояс: GMT + 4



Вы не можете начинать темы
Вы не можете отвечать на сообщения
Вы не можете редактировать свои сообщения
Вы не можете удалять свои сообщения
Вы не можете голосовать в опросах
Вы не можете прикреплять файлы к сообщениям
Вы не можете скачивать файлы

▼ Вниз