ML
     
  Уважаемый Гость!
Вы можете поддержать проект и зарегистрироваться у наших партнеров - онлайн-стратегия MyLands. При регистрации в игре Вы получите код, который сможете активировать после регистрации на pirat.ca и получить 1000 дублонов.

Ваш код:
8dcb839cf1b47e56d6dc42d17f26b3e4822e9aee
 
     

Вайнона Эрп / Wynonna Earp / Сезон: 1 / Серии: 13 из 13 (Паоло Барзмен / Paolo Barzman, ...) [2016 г., фэнтези, боевик, триллер, драма, детектив, вестерн, WEB-DLRip] MVO (Jaskier) + Original (Eng)

Ответить на тему
 
Автор
Сообщение

Пост 30-Сен-2016 00:59

[Q] 

somik

Легенда

-Вайнона Эрп / Wynonna Earp-- Производство: США, Канада
Жанр: фэнтези, боевик, триллер, драма, детектив, вестерн
Год выпуска: 2016 г.
Продолжительность: 00:43:06
Мировая премьера: 1 апреля 2016
Перевод: Профессиональный (многоголосый, закадровый) [Jaskier]
Оригинальный аудиопоток: английский
Режиссер: Паоло Барзмен / Paolo Barzman, ...-В ролях: Мелани Скрофано, Кэтерин Баррелл, Тим Розон, Шамир Андерсон, Грег Лосон, Анна Куик, Доминик Провост-Чалкли, Кейт Драммонд, Дэвид Нэйсом и др.-Описание: Вайнона Эрп — правнучка известного стража закона времен Дикого запада, особенно прославившегося по событиям в городке старателей Тумстоун. Сериал рассказывает о том, как наследница шерифа вершит собственное правосудие. Эта отважная девушка, прославившаяся своей меткостью и диким нравом, использует свои уникальные способности, чтобы в компании верных ей союзников ставить на место разного рода демонов и иных существ из потустороннего мира.-
Качество видео: WEB-DLRip
Контейнер: AVI
Видео кодек: XviD
Аудио кодек: MP3
Видео: 720x400 (1.80:1), 23.976 fps, XviD build 50 ~1550 kbps avg, 0.22 bit/pixel
Аудио: 48 kHz, MPEG Layer 3, 2 ch, ~192.00 kbps avg
Аудио #2: 48 kHz, MPEG Layer 3, 2 ch, ~192.00 kbps avg
Cубтитры: отсутствуют
Все на выход живо, тут безумная тетка со стволом!
Комиксы нынче хороший материал для новых проектов. Бум конечно грянул не сейчас, а пару лет назад, а может и не пару, уже и не упомнишь. Ну да ладно!
Сериал расскажет, как описано выше о правнучке великого стрелка Дикого запада Уайатта Эрпа. Тут идет речь о проклятье которое Эрп нарек на себя. Пока только три серии вышло и неизвестно за что его семейству такое наказание.
Главная героиня Вайнонны Эрп встретится с демонами и сверхъестественным, точнее с возратившимися. Это бывшие преступники которых когда-то убил ее прадед. Так же Вайнонна встретится с лучшим другом Эрпа, зовут которого Док Холлидэй. Ну вы же помните, что он умер от чахотки в расцвете сил. В напарники девушке войдет ее родная сестра, маршал из отряда Черных значков. Секретного подразделения, которое борется со сверхъестественными силами. Конечно есть и главный злодей Бобо, звучит устрашающе, правда? И много другой всякой нечисти.
О Мелани Скрофано (Вайнонна Эрп) слышу впервые. Скажу честно, я любитель таких героинь. Надирающая задницы плохим парням, делая это с юмором и долей иронии. Играет отменно, верю! К тому же симпатичная девушка.
Тим Розон (Док Холлидэй) аналогично, тоже без понятия кто такой. Нравится его образ ковбоя Дикого запада, манеры, акцент. Ну молчу про усы и образ в целом. Дамочкам думаю понравится.
Что сказать об остальных тоже не имею понятия. Но помните Эклза и Падалеки тоже никто знать не знал.
С юмором в сериале все в порядке, не знаю нечисть нынче еще популярна? Обычно с первой серии понимаю буду смотреть или нет. И таки жду не дождусь уже 4ю серию.
Приятного просмотра!
Общее
Полное имя : E:\Вайнона Эрп\Wynonna Earp.S01.2016.WEB-DLRip.Jaskier.[pirat.ca]\Wynonna.Earp.S01E01.XviD.Jaskier.avi
Формат : AVI
Формат/Информация : Audio Video Interleave
Размер файла : 601 Мбайт
Продолжительность : 43 м.
Общий поток : 1950 Кбит/сек
Программа кодирования : VirtualDubMod 1.5.10.3 | www.virtualdub-fr.org || (build 2550/release)
Библиотека кодирования : VirtualDubMod build 2550/release
Видео
Идентификатор : 0
Формат : MPEG-4 Visual
Профиль формата : Advanced [email protected]
Параметр BVOP формата : 2
Параметр QPel формата : Нет
Параметр GMC формата : Без точки перехода
Параметр матрицы формата : Default (MPEG)
Идентификатор кодека : XVID
Идентификатор кодека/Подсказка : XviD
Продолжительность : 43 м.
Битрейт : 1552 Кбит/сек
Ширина : 720 пикселей
Высота : 400 пикселей
Соотношение сторон : 16:9
Частота кадров : 23,976 (24000/1001) кадра/сек
Цветовое пространство : YUV
Субдискретизация насыщенности : 4:2:0
Битовая глубина : 8 бит
Тип развёртки : Прогрессивная
Метод сжатия : С потерями
Бит/(Пиксели*Кадры) : 0.225
Размер потока : 478 Мбайт (80%)
Библиотека кодирования : XviD 1.2.1 (UTC 2008-12-04)
Аудио #1
Идентификатор : 1
Формат : MPEG Audio
Версия формата : Version 1
Профиль формата : Layer 3
Режим : Joint stereo
Расширение режима : MS Stereo
Идентификатор кодека : 55
Идентификатор кодека/Подсказка : MP3
Продолжительность : 43 м.
Вид битрейта : Постоянный
Битрейт : 192 Кбит/сек
Каналы : 2 канала
Частота : 48,0 КГц
Метод сжатия : С потерями
Размер потока : 59,2 Мбайт (10%)
Выравнивание : Соединение по промежуткам
Продолжительность промежутка : 42 мс. (1,00 видеокадр)
Время предзагрузки промежутка : 504 мс.
Аудио #2
Идентификатор : 2
Формат : MPEG Audio
Версия формата : Version 1
Профиль формата : Layer 3
Режим : Joint stereo
Расширение режима : MS Stereo
Идентификатор кодека : 55
Идентификатор кодека/Подсказка : MP3
Продолжительность : 43 м.
Вид битрейта : Постоянный
Битрейт : 192 Кбит/сек
Каналы : 2 канала
Частота : 48,0 КГц
Метод сжатия : С потерями
Размер потока : 59,2 Мбайт (10%)
Выравнивание : Соединение по промежуткам
Продолжительность промежутка : 42 мс. (1,00 видеокадр)
Время предзагрузки промежутка : 504 мс.
Download / Скачать

Хотите скачать бесплатно? Зарегистрируйтесь на сайте (ссылка на регистрацию). Pirat.ca - самый быстрый торрент трекер в рунете!

Как скачивать  ·   Что такое торрент  ·   Рейтинг и ограничения

Пост 02-Окт-2016 11:00 (спустя 2 дня 10 часов)

Топик был перенесен из форума Зарубежные сериалы (Трюм) в форум Зарубежные сериалы
erchine
 
Показать сообщения:    
Ответить на тему

Текущее время: Сегодня 04:13

Часовой пояс: GMT + 4



Вы не можете начинать темы
Вы не можете отвечать на сообщения
Вы не можете редактировать свои сообщения
Вы не можете удалять свои сообщения
Вы не можете голосовать в опросах
Вы не можете прикреплять файлы к сообщениям
Вы не можете скачивать файлы

▼ Вниз